  0
SECTION
  2
HEADER
  9
$ACADVER
  1
AC1018
  9
$ACADMAINTVER
 70
   104
  9
$DWGCODEPAGE
  3
ANSI_1252
  9
$LASTSAVEDBY
  1
shollard
  9
$INSBASE
 10
0.0
 20
0.0
 30
0.0
  9
$EXTMIN
 10
1671.499909257496
 20
0.0
 30
0.0
  9
$EXTMAX
 10
5835.0
 20
3694.097671741173
 30
0.0
  9
$LIMMIN
 10
0.0
 20
0.0
  9
$LIMMAX
 10
7780.0
 20
5320.0
  9
$ORTHOMODE
 70
     1
  9
$REGENMODE
 70
     1
  9
$FILLMODE
 70
     1
  9
$QTEXTMODE
 70
     0
  9
$MIRRTEXT
 70
     0
  9
$LTSCALE
 40
100.0
  9
$ATTMODE
 70
     1
  9
$TEXTSIZE
 40
40.0
  9
$TRACEWID
 40
0.05
  9
$TEXTSTYLE
  7
TITLE3
  9
$CLAYER
  8
DIM
  9
$CELTYPE
  6
ByLayer
  9
$CECOLOR
 62
   256
  9
$CELTSCALE
 40
1.0
  9
$DISPSILH
 70
     0
  9
$DIMSCALE
 40
1.0
  9
$DIMASZ
 40
0.12
  9
$DIMEXO
 40
0.05
  9
$DIMDLI
 40
0.5
  9
$DIMRND
 40
0.0
  9
$DIMDLE
 40
0.0
  9
$DIMEXE
 40
0.1
  9
$DIMTP
 40
0.1
  9
$DIMTM
 40
0.1
  9
$DIMTXT
 40
0.12
  9
$DIMCEN
 40
0.0
  9
$DIMTSZ
 40
0.0
  9
$DIMTOL
 70
     0
  9
$DIMLIM
 70
     0
  9
$DIMTIH
 70
     1
  9
$DIMTOH
 70
     1
  9
$DIMSE1
 70
     0
  9
$DIMSE2
 70
     0
  9
$DIMTAD
 70
     0
  9
$DIMZIN
 70
     7
  9
$DIMBLK
  1

  9
$DIMASO
 70
     0
  9
$DIMSHO
 70
     0
  9
$DIMPOST
  1

  9
$DIMAPOST
  1
mm
  9
$DIMALT
 70
     0
  9
$DIMALTD
 70
     2
  9
$DIMALTF
 40
25.4
  9
$DIMLFAC
 40
1.0
  9
$DIMTOFL
 70
     0
  9
$DIMTVP
 40
0.0
  9
$DIMTIX
 70
     0
  9
$DIMSOXD
 70
     0
  9
$DIMSAH
 70
     0
  9
$DIMBLK1
  1

  9
$DIMBLK2
  1

  9
$DIMSTYLE
  2
AM_ANSI
  9
$DIMCLRD
 70
   256
  9
$DIMCLRE
 70
   256
  9
$DIMCLRT
 70
     2
  9
$DIMTFAC
 40
0.71
  9
$DIMGAP
 40
0.06
  9
$DIMJUST
 70
     0
  9
$DIMSD1
 70
     0
  9
$DIMSD2
 70
     0
  9
$DIMTOLJ
 70
     1
  9
$DIMTZIN
 70
     0
  9
$DIMALTZ
 70
     0
  9
$DIMALTTZ
 70
     0
  9
$DIMUPT
 70
     0
  9
$DIMDEC
 70
     4
  9
$DIMTDEC
 70
     4
  9
$DIMALTU
 70
     2
  9
$DIMALTTD
 70
     2
  9
$DIMTXSTY
  7
STANDARD
  9
$DIMAUNIT
 70
     0
  9
$DIMADEC
 70
     0
  9
$DIMALTRND
 40
0.0
  9
$DIMAZIN
 70
     0
  9
$DIMDSEP
 70
    46
  9
$DIMATFIT
 70
     3
  9
$DIMFRAC
 70
     0
  9
$DIMLDRBLK
  1

  9
$DIMLUNIT
 70
     2
  9
$DIMLWD
 70
    -2
  9
$DIMLWE
 70
    -2
  9
$DIMTMOVE
 70
     0
  9
$LUNITS
 70
     2
  9
$LUPREC
 70
     2
  9
$SKETCHINC
 40
0.1
  9
$FILLETRAD
 40
0.0
  9
$AUNITS
 70
     0
  9
$AUPREC
 70
     2
  9
$MENU
  1
\acad12\support\cnc
  9
$ELEVATION
 40
0.0
  9
$PELEVATION
 40
0.0
  9
$THICKNESS
 40
0.0
  9
$LIMCHECK
 70
     0
  9
$CHAMFERA
 40
0.0
  9
$CHAMFERB
 40
0.0
  9
$CHAMFERC
 40
0.0
  9
$CHAMFERD
 40
0.0
  9
$SKPOLY
 70
     0
  9
$TDCREATE
 40
2451402.555821528
  9
$TDUCREATE
 40
2451402.055821528
  9
$TDUPDATE
 40
2456183.684019410
  9
$TDUUPDATE
 40
2456183.184019410
  9
$TDINDWG
 40
0.6104540394
  9
$TDUSRTIMER
 40
0.6104501736
  9
$USRTIMER
 70
     1
  9
$ANGBASE
 50
0.0
  9
$ANGDIR
 70
     0
  9
$PDMODE
 70
     2
  9
$PDSIZE
 40
15.0
  9
$PLINEWID
 40
0.0
  9
$SPLFRAME
 70
     0
  9
$SPLINETYPE
 70
     6
  9
$SPLINESEGS
 70
     8
  9
$HANDSEED
  5
E0E1
  9
$SURFTAB1
 70
     6
  9
$SURFTAB2
 70
     6
  9
$SURFTYPE
 70
     6
  9
$SURFU
 70
     6
  9
$SURFV
 70
     6
  9
$UCSBASE
  2

  9
$UCSNAME
  2

  9
$UCSORG
 10
0.0
 20
0.0
 30
0.0
  9
$UCSXDIR
 10
1.0
 20
0.0
 30
0.0
  9
$UCSYDIR
 10
0.0
 20
1.0
 30
0.0
  9
$UCSORTHOREF
  2

  9
$UCSORTHOVIEW
 70
     0
  9
$UCSORGTOP
 10
0.0
 20
0.0
 30
0.0
  9
$UCSORGBOTTOM
 10
0.0
 20
0.0
 30
0.0
  9
$UCSORGLEFT
 10
0.0
 20
0.0
 30
0.0
  9
$UCSORGRIGHT
 10
0.0
 20
0.0
 30
0.0
  9
$UCSORGFRONT
 10
0.0
 20
0.0
 30
0.0
  9
$UCSORGBACK
 10
0.0
 20
0.0
 30
0.0
  9
$PUCSBASE
  2

  9
$PUCSNAME
  2

  9
$PUCSORG
 10
0.0
 20
0.0
 30
0.0
  9
$PUCSXDIR
 10
1.0
 20
0.0
 30
0.0
  9
$PUCSYDIR
 10
0.0
 20
1.0
 30
0.0
  9
$PUCSORTHOREF
  2

  9
$PUCSORTHOVIEW
 70
     0
  9
$PUCSORGTOP
 10
0.0
 20
0.0
 30
0.0
  9
$PUCSORGBOTTOM
 10
0.0
 20
0.0
 30
0.0
  9
$PUCSORGLEFT
 10
0.0
 20
0.0
 30
0.0
  9
$PUCSORGRIGHT
 10
0.0
 20
0.0
 30
0.0
  9
$PUCSORGFRONT
 10
0.0
 20
0.0
 30
0.0
  9
$PUCSORGBACK
 10
0.0
 20
0.0
 30
0.0
  9
$USERI1
 70
     0
  9
$USERI2
 70
     0
  9
$USERI3
 70
     0
  9
$USERI4
 70
     0
  9
$USERI5
 70
     0
  9
$USERR1
 40
0.0
  9
$USERR2
 40
0.0
  9
$USERR3
 40
0.0
  9
$USERR4
 40
0.0
  9
$USERR5
 40
0.0
  9
$WORLDVIEW
 70
     1
  9
$SHADEDGE
 70
     3
  9
$SHADEDIF
 70
    70
  9
$TILEMODE
 70
     1
  9
$MAXACTVP
 70
    16
  9
$PINSBASE
 10
0.0
 20
0.0
 30
0.0
  9
$PLIMCHECK
 70
     0
  9
$PEXTMIN
 10
1.000000000000000E+20
 20
1.000000000000000E+20
 30
1.000000000000000E+20
  9
$PEXTMAX
 10
-1.000000000000000E+20
 20
-1.000000000000000E+20
 30
-1.000000000000000E+20
  9
$PLIMMIN
 10
0.0
 20
0.0
  9
$PLIMMAX
 10
12.0
 20
9.0
  9
$UNITMODE
 70
     0
  9
$VISRETAIN
 70
     0
  9
$PLINEGEN
 70
     0
  9
$PSLTSCALE
 70
     0
  9
$TREEDEPTH
 70
  3020
  9
$CMLSTYLE
  2
Standard
  9
$CMLJUST
 70
     0
  9
$CMLSCALE
 40
1.0
  9
$PROXYGRAPHICS
 70
     1
  9
$MEASUREMENT
 70
     0
  9
$CELWEIGHT
370
    -1
  9
$ENDCAPS
280
     0
  9
$JOINSTYLE
280
     0
  9
$LWDISPLAY
290
     0
  9
$INSUNITS
 70
     0
  9
$HYPERLINKBASE
  1

  9
$STYLESHEET
  1

  9
$XEDIT
290
     1
  9
$CEPSNTYPE
380
     0
  9
$PSTYLEMODE
290
     1
  9
$FINGERPRINTGUID
  2
{632E0D24-AC9D-4AE8-B01F-C0A703C840A0}
  9
$VERSIONGUID
  2
{4E364394-8384-4848-BE18-B8170C9503DB}
  9
$EXTNAMES
290
     1
  9
$PSVPSCALE
 40
0.0
  9
$OLESTARTUP
290
     0
  9
$SORTENTS
280
   127
  9
$INDEXCTL
280
     0
  9
$HIDETEXT
280
     0
  9
$XCLIPFRAME
290
     0
  9
$HALOGAP
280
     0
  9
$OBSCOLOR
 70
   257
  9
$OBSLTYPE
280
     0
  9
$INTERSECTIONDISPLAY
280
     0
  9
$INTERSECTIONCOLOR
 70
   257
  9
$DIMASSOC
280
     0
  9
$PROJECTNAME
  1

  0
ENDSEC
  0
SECTION
  2
CLASSES
  0
CLASS
  1
ACDBDICTIONARYWDFLT
  2
AcDbDictionaryWithDefault
  3
ObjectDBX Classes
 90
        0
 91
        1
280
     0
281
     0
  0
CLASS
  1
MATERIAL
  2
AcDbMaterial
  3
ObjectDBX Classes
 90
     1153
 91
        3
280
     0
281
     0
  0
CLASS
  1
VISUALSTYLE
  2
AcDbVisualStyle
  3
ObjectDBX Classes
 90
     4095
 91
       24
280
     0
281
     0
  0
CLASS
  1
SCALE
  2
AcDbScale
  3
ObjectDBX Classes
 90
     1153
 91
       17
280
     0
281
     0
  0
CLASS
  1
TABLESTYLE
  2
AcDbTableStyle
  3
ObjectDBX Classes
 90
     4095
 91
        1
280
     0
281
     0
  0
CLASS
  1
MLEADERSTYLE
  2
AcDbMLeaderStyle
  3
ACDB_MLEADERSTYLE_CLASS
 90
     4095
 91
        1
280
     0
281
     0
  0
CLASS
  1
AMGSETTINGSOBJ
  2
AmgSettingsObj
  3
"AcadM|Product Description: AutoCAD Mechanical|Company: Autodesk, Inc."
 90
     1024
 91
        8
280
     0
281
     0
  0
CLASS
  1
ACME_DOCUMENT
  2
AcMeDbDoc
  3
AcMeServices
 90
     1024
 91
        2
280
     0
281
     0
  0
CLASS
  1
ACMESCOPE
  2
AcMeScope
  3
AcMeServices
 90
     1024
 91
        1
280
     0
281
     0
  0
CLASS
  1
ACMECOMMANDHISTORY
  2
AcMeCommandHistory
  3
AcMeServices
 90
     1024
 91
        1
280
     0
281
     0
  0
CLASS
  1
ACIMSYSVARMAN
  2
AcImSysVarManager
  3
AcMeServices
 90
     1024
 91
        3
280
     0
281
     0
  0
CLASS
  1
ACIMINTSYSVAR
  2
AcImIntSysVar
  3
AcMeServices
 90
     1024
 91
        2
280
     0
281
     0
  0
CLASS
  1
ACMESTATEMGR
  2
AcMeStateMgr
  3
AcMeServices
 90
     1024
 91
        1
280
     0
281
     0
  0
CLASS
  1
ACDBENTITYCACHE
  2
AcMeEntityCache
  3
AcMeServices
 90
     1024
 91
        1
280
     0
281
     0
  0
CLASS
  1
ACGREFMASTER
  2
AcGrefMaster
  3
AcAttribServices
 90
     1024
 91
        1
280
     0
281
     0
  0
CLASS
  1
ACME_DATABASE
  2
AcMeDbDatabase
  3
AcMeServices
 90
     1024
 91
        1
280
     0
281
     0
  0
CLASS
  1
ACRFINSADJUSTERMGR
  2
AcRfInsAdjusterMgr
  3
AcMeServices
 90
     1024
 91
        1
280
     0
281
     0
  0
CLASS
  1
ACGREFACADMASTER
  2
AcGrefacadMaster
  3
AcGrefServices
 90
     1024
 91
        1
280
     0
281
     0
  0
CLASS
  1
AMDTMENUSTATEMGR
  2
AmdtMenuStateMgr
  3
McadcomServices
 90
     1024
 91
        1
280
     0
281
     0
  0
CLASS
  1
AMDTMCOMMENUSTATE
  2
AmdtMcomMenuState
  3
McadcomServices
 90
     1024
 91
        1
280
     0
281
     0
  0
CLASS
  1
AMIMASTER
  2
AmiMaster
  3
AmiServices
 90
     1024
 91
        1
280
     0
281
     0
  0
CLASS
  1
MAPIAMMOUDLE
  2
MApiAmModule
  3
MApiAmServices
 90
     1024
 91
        1
280
     0
281
     0
  0
CLASS
  1
ACIMSTRSYSVAR
  2
AcImStrSysVar
  3
AcMeServices
 90
     1024
 91
        5
280
     0
281
     0
  0
CLASS
  1
AMDTAMMENUSTATE
  2
AmdtAmMenuState
  3
DesignerAssemblies
 90
     1024
 91
        1
280
     0
281
     0
  0
CLASS
  1
ACAMPROJECT
  2
AcAmProject
  3
DesignerAssemblies
 90
     1024
 91
        1
280
     0
281
     0
  0
CLASS
  1
ACAMGRCOMPDEF
  2
AcAmGrCompDef
  3
DesignerAssemblies
 90
     1024
 91
        1
280
     0
281
     0
  0
CLASS
  1
ACAMCOMPDEF
  2
AcAmCompDef
  3
DesignerAssemblies
 90
     1024
 91
        1
280
     0
281
     0
  0
CLASS
  1
ACAMCOMPDEFMGR
  2
AcAmCompDefMgr
  3
DesignerAssemblies
 90
     1024
 91
        1
280
     0
281
     0
  0
CLASS
  1
AMCONTEXTMGR
  2
AcAmContextMgr
  3
DesignerAssemblies
 90
     1024
 91
        1
280
     0
281
     0
  0
CLASS
  1
ACAMCONTEXTMODELER
  2
AcAmContextModeler
  3
DesignerAssemblies
 90
     1024
 91
        1
280
     0
281
     0
  0
CLASS
  1
ACMDATADICTIONARY
  2
AcmDataDictionary
  3
"AcmSymBB|Product Description: AutoCAD Mechanical|Company: Autodesk, Inc."
 90
     1024
 91
        1
280
     0
281
     0
  0
CLASS
  1
ACAMGRCOMPDEFSET
  2
AcAmGrCompDefSet
  3
DesignerAssemblies
 90
     1024
 91
        1
280
     0
281
     0
  0
CLASS
  1
AMDTBROWSERDBTAB
  2
AmdtBrowserDbTab
  3
McadcomServices
 90
     1024
 91
        1
280
     0
281
     0
  0
CLASS
  1
CBROWSERAPPOBJECT
  2
CBrowserAppObject
  3
McadcomServices
 90
     1024
 91
        2
280
     0
281
     0
  0
CLASS
  1
DM_PLACEHOLDER
  2
AcDmSelsetPlaceholder
  3
McadcomServices
 90
     1024
 91
        1
280
     0
281
     0
  0
CLASS
  1
EXACXREFPANELOBJECT
  2
ExAcXREFPanelObject
  3
EXAC_ESW
 90
     1025
 91
        1
280
     0
281
     0
  0
CLASS
  1
NPOCOLLECTION
  2
AcDbImpNonPersistentObjectsCollection
  3
ObjectDBX Classes
 90
     1153
 91
        1
280
     0
281
     0
  0
CLASS
  1
ACMSTANDARDANSI
  2
AcmStandardANSI
  3
"Amdt_StdImp|Product Description: AutoCAD Mechanical|Company: Autodesk, Inc."
 90
     1024
 91
        1
280
     0
281
     0
  0
CLASS
  1
ACMSURFSTANDARDANSI
  2
AcmSurfTextStdANSI
  3
"Amdt_StdImp|Product Description: AutoCAD Mechanical|Company: Autodesk, Inc."
 90
     1024
 91
        1
280
     0
281
     0
  0
CLASS
  1
ACMFCFSTANDARDANSI
  2
AcmFCFStdANSI
  3
"Amdt_StdImp|Product Description: AutoCAD Mechanical|Company: Autodesk, Inc."
 90
     1024
 91
        1
280
     0
281
     0
  0
CLASS
  1
ACMWELDSTANDARDANSI
  2
AcmWeldingStdANSI
  3
"Amdt_StdImp|Product Description: AutoCAD Mechanical|Company: Autodesk, Inc."
 90
     1024
 91
        1
280
     0
281
     0
  0
CLASS
  1
ACMIDSTANDARDANSI
  2
AcmIdStdANSI
  3
"Amdt_StdImp|Product Description: AutoCAD Mechanical|Company: Autodesk, Inc."
 90
     1024
 91
        1
280
     0
281
     0
  0
CLASS
  1
ACMDATUMSTANDARDANSI
  2
AcmDatumStdANSI
  3
"Amdt_StdImp|Product Description: AutoCAD Mechanical|Company: Autodesk, Inc."
 90
     1024
 91
        1
280
     0
281
     0
  0
CLASS
  1
ACMBOMSTANDARDANSI
  2
AcmBOMStdANSI
  3
"Amdt_StdImp|Product Description: AutoCAD Mechanical|Company: Autodesk, Inc."
 90
     1024
 91
        1
280
     0
281
     0
  0
CLASS
  1
ACMDETAILSTANDARDANSI
  2
AmdtDetailSymStdANSI
  3
"Amdt_StdImp|Product Description: AutoCAD Mechanical|Company: Autodesk, Inc."
 90
     1024
 91
        1
280
     0
281
     0
  0
CLASS
  1
ACMSECTIONSTANDARDANSI
  2
AmdtSectionSymStdANSI
  3
"Amdt_StdImp|Product Description: AutoCAD Mechanical|Company: Autodesk, Inc."
 90
     1024
 91
        1
280
     0
281
     0
  0
CLASS
  1
ACMCENTERLINESTANDARDANSI
  2
AmdtCenterLineStdANSI
  3
"Amdt_StdImp|Product Description: AutoCAD Mechanical|Company: Autodesk, Inc."
 90
     1024
 91
        1
280
     0
281
     0
  0
CLASS
  1
ACMTHREADLINESTANDARDANSI
  2
AmdtThreadLineStdANSI
  3
"Amdt_StdImp|Product Description: AutoCAD Mechanical|Company: Autodesk, Inc."
 90
     1024
 91
        1
280
     0
281
     0
  0
CLASS
  1
ACMNOTESTANDARDANSI
  2
AmdtNoteStdANSI
  3
"Amdt_StdImp|Product Description: AutoCAD Mechanical|Company: Autodesk, Inc."
 90
     1024
 91
        1
280
     0
281
     0
  0
CLASS
  1
ACMTAPERSTANDARDANSI
  2
AcmTaperStdANSI
  3
"Amdt_StdImp|Product Description: AutoCAD Mechanical|Company: Autodesk, Inc."
 90
     1024
 91
        1
280
     0
281
     0
  0
CLASS
  1
ACMANOOTATIONVIEWSTANDARDANSI
  2
AmdtAnViewStdANSI
  3
"Amdt_StdImp|Product Description: AutoCAD Mechanical|Company: Autodesk, Inc."
 90
     1024
 91
        1
280
     0
281
     0
  0
CLASS
  1
ACAMGLAYSTD
  2
AcAmgLayStd
  3
"AmgLay|Product Description: AutoCAD Mechanical|Company: Autodesk, Inc."
 90
     1024
 91
        2
280
     0
281
     0
  0
CLASS
  1
ACAMGDIMSTD
  2
AcAmgDimStd
  3
"AmgDim|Product Description: AutoCAD Mechanical|Company: Autodesk, Inc."
 90
     1024
 91
        2
280
     0
281
     0
  0
CLASS
  1
ACAMGHOLECHARTSTDANSI
  2
AcAmgHoleChartStdANSI
  3
AmgDim|Product Description: AutoCAD Mechanical|Company: Autodesk, Inc.
 90
     1024
 91
        1
280
     0
281
     0
  0
CLASS
  1
AMGOBJPROPCFG
  2
AmgObjPropCfg
  3
"AmgLay|Product Description: AutoCAD Mechanical|Company: Autodesk, Inc."
 90
     1025
 91
        1
280
     0
281
     0
  0
CLASS
  1
ACAMGTITLESTD
  2
AcAmgTitleStd
  3
"AmgTitle|Product Description: AutoCAD Mechanical|Company: Autodesk, Inc."
 90
     4095
 91
        2
280
     0
281
     0
  0
CLASS
  1
AMDTNOTETEMPLATEDB
  2
AmdtNoteTemplateDB
  3
AcmSymBB|Product Description: AutoCAD Mechanical|Company: Autodesk, Inc.
 90
     1024
 91
       12
280
     0
281
     0
  0
CLASS
  1
CELLSTYLEMAP
  2
AcDbCellStyleMap
  3
ObjectDBX Classes
 90
     1152
 91
       19
280
     0
281
     0
  0
CLASS
  1
DICTIONARYVAR
  2
AcDbDictionaryVar
  3
ObjectDBX Classes
 90
        0
 91
       60
280
     0
281
     0
  0
CLASS
  1
ACAMGFILTERDAT
  2
AcAmgFilterDat
  3
"AcadM|Product Description: AutoCAD Mechanical|Company: Autodesk, Inc."
 90
     1024
 91
        6
280
     0
281
     0
  0
CLASS
  1
SORTENTSTABLE
  2
AcDbSortentsTable
  3
ObjectDBX Classes
 90
        0
 91
        1
280
     0
281
     0
  0
CLASS
  1
ACMSTANDARDISO
  2
AcmStandardISO
  3
"Amdt_StdImp|Product Description: AutoCAD Mechanical|Company: Autodesk, Inc."
 90
     1024
 91
        1
280
     0
281
     0
  0
CLASS
  1
AMDTEDGESTANDARDISO13715
  2
AmdtEdgeStdISO13715
  3
"Amdt_StdImp|Product Description: AutoCAD Mechanical|Company: Autodesk, Inc."
 90
     1024
 91
        1
280
     0
281
     0
  0
CLASS
  1
ACMSURFSTANDARDISO2002
  2
AcmSurfTextStdISO2002
  3
"Amdt_StdImp|Product Description: AutoCAD Mechanical|Company: Autodesk, Inc."
 90
     1024
 91
        1
280
     0
281
     0
  0
CLASS
  1
ACMFCFSTANDARDISO2004
  2
AcmFCFStdISO2004
  3
"Amdt_StdImp|Product Description: AutoCAD Mechanical|Company: Autodesk, Inc."
 90
     1024
 91
        1
280
     0
281
     0
  0
CLASS
  1
ACMWELDSTANDARDISO
  2
AcmWeldingStdISO
  3
"Amdt_StdImp|Product Description: AutoCAD Mechanical|Company: Autodesk, Inc."
 90
     1024
 91
        1
280
     0
281
     0
  0
CLASS
  1
ACMIDSTANDARDISO2004
  2
AcmIdStdISO2004
  3
"Amdt_StdImp|Product Description: AutoCAD Mechanical|Company: Autodesk, Inc."
 90
     1024
 91
        1
280
     0
281
     0
  0
CLASS
  1
ACMDATUMSTANDARDISO
  2
AcmDatumStdISO
  3
"Amdt_StdImp|Product Description: AutoCAD Mechanical|Company: Autodesk, Inc."
 90
     1024
 91
        1
280
     0
281
     0
  0
CLASS
  1
ACMBOMSTANDARDISO
  2
AcmBOMStdISO
  3
"Amdt_StdImp|Product Description: AutoCAD Mechanical|Company: Autodesk, Inc."
 90
     1024
 91
        1
280
     0
281
     0
  0
CLASS
  1
ACMDETAILSTANDARDISO
  2
AmdtDetailSymStdISO
  3
"Amdt_StdImp|Product Description: AutoCAD Mechanical|Company: Autodesk, Inc."
 90
     1024
 91
        1
280
     0
281
     0
  0
CLASS
  1
ACMSECTIONSTANDARDISO2001
  2
AmdtSectionSymStdISO2001
  3
"Amdt_StdImp|Product Description: AutoCAD Mechanical|Company: Autodesk, Inc."
 90
     1024
 91
        1
280
     0
281
     0
  0
CLASS
  1
ACMCENTERLINESTANDARDISO
  2
AmdtCenterLineStdISO
  3
"Amdt_StdImp|Product Description: AutoCAD Mechanical|Company: Autodesk, Inc."
 90
     1024
 91
        1
280
     0
281
     0
  0
CLASS
  1
ACMTHREADLINESTANDARDISO
  2
AmdtThreadLineStdISO
  3
"Amdt_StdImp|Product Description: AutoCAD Mechanical|Company: Autodesk, Inc."
 90
     1024
 91
        1
280
     0
281
     0
  0
CLASS
  1
ACMNOTESTANDARDISO
  2
AmdtNoteStdISO
  3
"Amdt_StdImp|Product Description: AutoCAD Mechanical|Company: Autodesk, Inc."
 90
     1024
 91
        1
280
     0
281
     0
  0
CLASS
  1
ACMTAPERSTANDARDISO
  2
AcmTaperStdISO
  3
"Amdt_StdImp|Product Description: AutoCAD Mechanical|Company: Autodesk, Inc."
 90
     1024
 91
        1
280
     0
281
     0
  0
CLASS
  1
ACMANOOTATIONVIEWSTANDARDISO
  2
AmdtAnViewStdISO
  3
"Amdt_StdImp|Product Description: AutoCAD Mechanical|Company: Autodesk, Inc."
 90
     1024
 91
        1
280
     0
281
     0
  0
CLASS
  1
ACAMGHOLECHARTSTDISO
  2
AcAmgHoleChartStdISO
  3
AmgDim|Product Description: AutoCAD Mechanical|Company: Autodesk, Inc.
 90
     1024
 91
        1
280
     0
281
     0
  0
CLASS
  1
CAMSSTRUCTBTNSTATE
  2
StructBtnState
  3
DesignerAssemblies
 90
     1024
 91
        1
280
     0
281
     0
  0
ENDSEC
  0
SECTION
  2
TABLES
  0
TABLE
  2
VPORT
  5
1A59
102
{ACAD_XDICTIONARY
360
71AC
102
}
330
0
100
AcDbSymbolTable
 70
     1
  0
VPORT
  5
1AC2
330
1A59
100
AcDbSymbolTableRecord
100
AcDbViewportTableRecord
  2
*ACTIVE
 70
     0
 10
0.0
 20
0.0
 11
1.0
 21
1.0
 12
-382.6939918266112
 22
-209.574277791703
 13
0.0
 23
0.0
 14
50.0
 24
50.0
 15
100.0
 25
100.0
 16
0.0
 26
0.0
 36
10118.44096327552
 17
4076.899052012199
 27
1673.591469772881
 37
0.0
 40
3283.409267371887
 41
1.887058823529411
 42
50.0
 43
0.0
 44
0.0
 50
0.0
 51
0.0
 71
     0
 72
   100
 73
     1
 74
     0
 75
     0
 76
     0
 77
     0
 78
     0
281
     0
 65
     0
110
0.0
120
0.0
130
0.0
111
1.0
121
0.0
131
0.0
112
0.0
122
1.0
132
0.0
 79
     0
146
0.0
1001
ACAD_NAV_VCDISPLAY
1070
     3
  0
ENDTAB
  0
TABLE
  2
LTYPE
  5
1A56
330
0
100
AcDbSymbolTable
 70
    25
  0
LTYPE
  5
1AAB
330
1A56
100
AcDbSymbolTableRecord
100
AcDbLinetypeTableRecord
  2
ByBlock
 70
     0
  3

 72
    65
 73
     0
 40
0.0
  0
LTYPE
  5
1AAC
330
1A56
100
AcDbSymbolTableRecord
100
AcDbLinetypeTableRecord
  2
ByLayer
 70
     0
  3

 72
    65
 73
     0
 40
0.0
  0
LTYPE
  5
1AAD
330
1A56
100
AcDbSymbolTableRecord
100
AcDbLinetypeTableRecord
  2
CONTINUOUS
 70
     0
  3
Solid line
 72
    65
 73
     0
 40
0.0
  0
LTYPE
  5
1AC4
330
1A56
100
AcDbSymbolTableRecord
100
AcDbLinetypeTableRecord
  2
HIDDEN
 70
     0
  3
Hidden __ __ __ __ __ __ __ __ __ __ __ __ __ __
 72
    65
 73
     2
 40
0.375
 49
0.25
 74
     0
 49
-0.125
 74
     0
  0
LTYPE
  5
1AC5
330
1A56
100
AcDbSymbolTableRecord
100
AcDbLinetypeTableRecord
  2
PHANTOM2
 70
     0
  3
Phantom (.5x) ___ _ _ ___ _ _ ___ _ _ ___ _ _
 72
    65
 73
     6
 40
1.25
 49
0.625
 74
     0
 49
-0.125
 74
     0
 49
0.125
 74
     0
 49
-0.125
 74
     0
 49
0.125
 74
     0
 49
-0.125
 74
     0
  0
LTYPE
  5
1AC6
330
1A56
100
AcDbSymbolTableRecord
100
AcDbLinetypeTableRecord
  2
CENTER
 70
     0
  3
Center ____ _ ____ _ ____ _ ____ _ ____ _ ____
 72
    65
 73
     4
 40
2.0
 49
1.25
 74
     0
 49
-0.25
 74
     0
 49
0.25
 74
     0
 49
-0.25
 74
     0
  0
LTYPE
  5
1AC7
330
1A56
100
AcDbSymbolTableRecord
100
AcDbLinetypeTableRecord
  2
AM_ISO02W050
 70
     0
  3
__ __ __ __ __ __ __ __ __ __ __ __ __ __ __
 72
    65
 73
     2
 40
7.5
 49
6.0
 74
     0
 49
-1.5
 74
     0
  0
LTYPE
  5
1AC8
330
1A56
100
AcDbSymbolTableRecord
100
AcDbLinetypeTableRecord
  2
AM_ISO08W050
 70
     0
  3
____ . ____ . ____ . ____ . ____ . ____ . ____
 72
    65
 73
     4
 40
18.0
 49
12.0
 74
     0
 49
-1.5
 74
     0
 49
3.0
 74
     0
 49
-1.5
 74
     0
  0
LTYPE
  5
1AC9
330
1A56
100
AcDbSymbolTableRecord
100
AcDbLinetypeTableRecord
  2
AM_ISO09W050
 70
     0
  3
_____ . . _____ . . _____ . . ____ .. ____
 72
    65
 73
     6
 40
22.5
 49
12.0
 74
     0
 49
-1.5
 74
     0
 49
3.0
 74
     0
 49
-1.5
 74
     0
 49
3.0
 74
     0
 49
-1.5
 74
     0
  0
LTYPE
  5
1ACA
330
1A56
100
AcDbSymbolTableRecord
100
AcDbLinetypeTableRecord
  2
AMCONSTR
 70
     0
  3
_______________________
 72
    65
 73
     2
 40
9999.0
 49
9999.0
 74
     0
 49
0.0
 74
     0
  0
LTYPE
  5
1ACB
330
1A56
100
AcDbSymbolTableRecord
100
AcDbLinetypeTableRecord
  2
AM_ISO08W050X2
 70
     0
  3
__ . __ . __ . __ . __ . __
 72
    65
 73
     4
 40
9.0
 49
6.0
 74
     0
 49
-0.75
 74
     0
 49
1.5
 74
     0
 49
-0.75
 74
     0
  0
LTYPE
  5
1ACC
330
1A56
100
AcDbSymbolTableRecord
100
AcDbLinetypeTableRecord
  2
AM_ISO02W050X2
 70
     0
  3
 _ _ _ _ _ _ _ _ _ _ _ _
 72
    65
 73
     2
 40
3.75
 49
3.0
 74
     0
 49
-0.75
 74
     0
  0
LTYPE
  5
1ACD
330
1A56
100
AcDbSymbolTableRecord
100
AcDbLinetypeTableRecord
  2
AMZIGZAG
 70
     0
  3
/\/-/\/-/\/-/\/-/\/-/\/
 72
    65
 73
     2
 40
11.0001
 49
0.0001
 74
     0
 49
-11.0
 74
     0
  0
LTYPE
  5
1ACE
330
1A56
100
AcDbSymbolTableRecord
100
AcDbLinetypeTableRecord
  2
CENTER2
 70
     0
  3
Center (.5x) ___ _ ___ _ ___ _ ___ _ ___ _ ___
 72
    65
 73
     4
 40
1.125
 49
0.75
 74
     0
 49
-0.125
 74
     0
 49
0.125
 74
     0
 49
-0.125
 74
     0
  0
LTYPE
  5
1ACF
330
1A56
100
AcDbSymbolTableRecord
100
AcDbLinetypeTableRecord
  2
HIDDEN2
 70
     0
  3
Hidden (.5x) _ _ _ _ _ _ _ _ _ _ _ _ _ _ _ _ _
 72
    65
 73
     2
 40
0.1875
 49
0.125
 74
     0
 49
-0.0625
 74
     0
  0
LTYPE
  5
1AD0
330
1A56
100
AcDbSymbolTableRecord
100
AcDbLinetypeTableRecord
  2
AMZIGZAG2
 70
     0
  3
/\/-/\/-/\/-/\/-/\/-/\/
 72
    65
 73
     2
 40
0.4401
 49
0.0001
 74
     0
 49
-0.4400000000000003
 74
     0
  0
LTYPE
  5
1AD1
330
1A56
100
AcDbSymbolTableRecord
100
AcDbLinetypeTableRecord
  2
ACANSTGB
 70
     0
  3
__ . . __ . .
 72
    65
 73
     6
 40
0.35433070866
 49
0.15748031496
 74
     0
 49
-0.03937007874
 74
     0
 49
0.03937007874
 74
     0
 49
-0.03937007874
 74
     0
 49
0.03937007874
 74
     0
 49
-0.03937007874
 74
     0
  0
LTYPE
  5
1AD2
330
1A56
100
AcDbSymbolTableRecord
100
AcDbLinetypeTableRecord
  2
ACANSTGL
 70
     0
  3
_ _ _ _ _
 72
    65
 73
     2
 40
0.11811023622
 49
0.07874015748
 74
     0
 49
-0.03937007874
 74
     0
  0
LTYPE
  5
1C39
330
1A56
100
AcDbSymbolTableRecord
100
AcDbLinetypeTableRecord
  2
ACISOWELD
 70
     0
  3
_ _ _ _ _
 72
    65
 73
     2
 40
2.0
 49
2.0
 74
     0
 49
-1.0
 74
     0
  0
LTYPE
  5
1C3A
330
1A56
100
AcDbSymbolTableRecord
100
AcDbLinetypeTableRecord
  2
ACISOTGL
 70
     0
  3
_ _ _ _ _
 72
    65
 73
     2
 40
3.0
 49
2.0
 74
     0
 49
-1.0
 74
     0
  0
LTYPE
  5
1C3B
330
1A56
100
AcDbSymbolTableRecord
100
AcDbLinetypeTableRecord
  2
ACISOTGB
 70
     0
  3
__ . . __ . .
 72
    65
 73
     6
 40
9.0
 49
4.0
 74
     0
 49
-1.0
 74
     0
 49
1.0
 74
     0
 49
-1.0
 74
     0
 49
1.0
 74
     0
 49
-1.0
 74
     0
  0
ENDTAB
  0
TABLE
  2
LAYER
  5
1A53
102
{ACAD_XDICTIONARY
360
719F
102
}
330
0
100
AcDbSymbolTable
 70
    14
  0
LAYER
  5
1AA5
102
{ACAD_XDICTIONARY
360
7186
102
}
330
1A53
100
AcDbSymbolTableRecord
100
AcDbLayerTableRecord
  2
0
 70
     0
 62
     7
  6
CONTINUOUS
370
    -3
390
1A60
  0
LAYER
  5
1AC0
102
{ACAD_XDICTIONARY
360
7188
102
}
330
1A53
100
AcDbSymbolTableRecord
100
AcDbLayerTableRecord
  2
DIM
 70
     0
 62
     7
  6
CONTINUOUS
370
    -3
390
1A60
  0
LAYER
  5
1AD5
102
{ACAD_XDICTIONARY
360
718A
102
}
330
1A53
100
AcDbSymbolTableRecord
100
AcDbLayerTableRecord
  2
OUTLINE
 70
     0
 62
     7
  6
CONTINUOUS
370
    -3
390
1A60
  0
LAYER
  5
1AD6
102
{ACAD_XDICTIONARY
360
718C
102
}
330
1A53
100
AcDbSymbolTableRecord
100
AcDbLayerTableRecord
  2
TEXT
 70
     0
 62
   100
  6
CONTINUOUS
370
    -3
390
1A60
  0
LAYER
  5
1AD7
102
{ACAD_XDICTIONARY
360
718E
102
}
330
1A53
100
AcDbSymbolTableRecord
100
AcDbLayerTableRecord
  2
MTG-FEET
 70
     0
 62
    30
  6
CONTINUOUS
370
    -3
390
1A60
  0
LAYER
  5
1AD8
102
{ACAD_XDICTIONARY
360
7190
102
}
330
1A53
100
AcDbSymbolTableRecord
100
AcDbLayerTableRecord
  2
OVERLAY-A3
 70
     0
 62
     7
  6
CONTINUOUS
370
    -3
390
1A60
  0
LAYER
  5
1C3C
102
{ACAD_XDICTIONARY
360
7192
102
}
330
1A53
100
AcDbSymbolTableRecord
100
AcDbLayerTableRecord
  2
Sketch Geometry (ANSI)
 70
     0
 62
     7
  6
CONTINUOUS
370
    25
390
1A60
  0
LAYER
  5
1C40
102
{ACAD_XDICTIONARY
360
719A
102
}
330
1A53
100
AcDbSymbolTableRecord
100
AcDbLayerTableRecord
  2
Visible
 70
     0
 62
     7
  6
CONTINUOUS
370
    15
390
1A60
  0
LAYER
  5
1C41
330
1A53
100
AcDbSymbolTableRecord
100
AcDbLayerTableRecord
  2
Defpoints
 70
     0
 62
     7
  6
CONTINUOUS
290
     0
370
    -3
390
1A60
  0
ENDTAB
  0
TABLE
  2
STYLE
  5
1A54
330
0
100
AcDbSymbolTable
 70
    11
  0
STYLE
  5
1AA6
330
1A54
100
AcDbSymbolTableRecord
100
AcDbTextStyleTableRecord
  2
STANDARD
 70
     0
 40
0.0
 41
1.0
 50
0.0
 71
     0
 42
0.2
  3
txt
  4

  0
STYLE
  5
1AC1
330
1A54
100
AcDbSymbolTableRecord
100
AcDbTextStyleTableRecord
  2
TITLE3
 70
     0
 40
40.0
 41
1.0
 50
0.0
 71
     0
 42
40.0
  3
SIMPLEX.shx
  4

  0
STYLE
  5
1AD9
330
1A54
100
AcDbSymbolTableRecord
100
AcDbTextStyleTableRecord
  2
TITLE5
 70
     0
 40
75.0
 41
1.0
 50
0.0
 71
     0
 42
100.0
  3
SIMPLEX
  4

  0
STYLE
  5
1ADA
330
1A54
100
AcDbSymbolTableRecord
100
AcDbTextStyleTableRecord
  2
SIMPLEX
 70
     0
 40
60.0
 41
1.0
 50
0.0
 71
     0
 42
60.0
  3
simplex
  4

  0
STYLE
  5
1ADD
330
1A54
100
AcDbSymbolTableRecord
100
AcDbTextStyleTableRecord
  2
ACANSGDT
 70
     0
 40
0.0
 41
1.0
 50
0.0
 71
     0
 42
40.0
  3
amgdt.shx
  4

  0
STYLE
  5
1C42
330
1A54
100
AcDbSymbolTableRecord
100
AcDbTextStyleTableRecord
  2
Note Text
 70
     0
 40
0.0
 41
1.0
 50
0.0
 71
     0
 42
0.2
  3
tahoma.ttf
  4

1001
ACAD
1000
Tahoma
1071
      256
  0
STYLE
  5
1C43
330
1A54
100
AcDbSymbolTableRecord
100
AcDbTextStyleTableRecord
  2
ACISOGDT
 70
     0
 40
0.0
 41
1.0
 50
0.0
 71
     0
 42
0.2
  3
amgdt.shx
  4

  0
ENDTAB
  0
TABLE
  2
VIEW
  5
1A57
330
0
100
AcDbSymbolTable
 70
     1
  0
ENDTAB
  0
TABLE
  2
UCS
  5
1A58
330
0
100
AcDbSymbolTable
 70
     0
  0
ENDTAB
  0
TABLE
  2
APPID
  5
1A5A
330
0
100
AcDbSymbolTable
 70
    21
  0
APPID
  5
1AA7
330
1A5A
100
AcDbSymbolTableRecord
100
AcDbRegAppTableRecord
  2
ACAD
 70
     0
  0
APPID
  5
1AAE
330
1A5A
100
AcDbSymbolTableRecord
100
AcDbRegAppTableRecord
  2
ACADANNOTATIVE
 70
     0
  0
APPID
  5
1ADE
330
1A5A
100
AcDbSymbolTableRecord
100
AcDbRegAppTableRecord
  2
ACAD_MLEADERVER
 70
     0
  0
APPID
  5
1ADF
330
1A5A
100
AcDbSymbolTableRecord
100
AcDbRegAppTableRecord
  2
ACAD_PSEXT
 70
     0
  0
APPID
  5
1AE0
330
1A5A
100
AcDbSymbolTableRecord
100
AcDbRegAppTableRecord
  2
ACAECLAYERSTANDARD
 70
     0
  0
APPID
  5
1AE1
330
1A5A
100
AcDbSymbolTableRecord
100
AcDbRegAppTableRecord
  2
MCAD_NO_VIS
 70
     0
  0
APPID
  5
1AE2
330
1A5A
100
AcDbSymbolTableRecord
100
AcDbRegAppTableRecord
  2
ACAD_TEMP_GRAPHIC
 70
     0
  0
APPID
  5
1AE3
330
1A5A
100
AcDbSymbolTableRecord
100
AcDbRegAppTableRecord
  2
AD_DRAW
 70
     0
  0
APPID
  5
1AE4
330
1A5A
100
AcDbSymbolTableRecord
100
AcDbRegAppTableRecord
  2
ACATTRIBSERVICES
 70
     0
  0
APPID
  5
1AE5
330
1A5A
100
AcDbSymbolTableRecord
100
AcDbRegAppTableRecord
  2
DESIGNERASSEMBLIES
 70
     0
  0
APPID
  5
1AE6
330
1A5A
100
AcDbSymbolTableRecord
100
AcDbRegAppTableRecord
  2
ACADM_DIM_EDIT
 70
     0
  0
APPID
  5
1AE7
330
1A5A
100
AcDbSymbolTableRecord
100
AcDbRegAppTableRecord
  2
AMDT_DM_ADJ
 70
     0
  0
APPID
  5
1AE8
330
1A5A
100
AcDbSymbolTableRecord
100
AcDbRegAppTableRecord
  2
ACAD_EXEMPT_FROM_CAD_STANDARDS
 70
     0
  0
APPID
  5
1AE9
330
1A5A
100
AcDbSymbolTableRecord
100
AcDbRegAppTableRecord
  2
ACAD_DSTYLE_DIMBREAK
 70
     0
  0
APPID
  5
1AEA
330
1A5A
100
AcDbSymbolTableRecord
100
AcDbRegAppTableRecord
  2
ACAD_DSTYLE_DIMJAG
 70
     0
  0
APPID
  5
1AEB
330
1A5A
100
AcDbSymbolTableRecord
100
AcDbRegAppTableRecord
  2
ACAD_NAV_VCDISPLAY
 70
     0
  0
APPID
  5
71E2
330
1A5A
100
AcDbSymbolTableRecord
100
AcDbRegAppTableRecord
  2
ACAD_DSTYLE_DIMARC_LENGTH_SYMBOL
 70
     0
  0
APPID
  5
71E3
330
1A5A
100
AcDbSymbolTableRecord
100
AcDbRegAppTableRecord
  2
ACAD_DSTYLE_DIM_LINETYPE
 70
     0
  0
APPID
  5
71E4
330
1A5A
100
AcDbSymbolTableRecord
100
AcDbRegAppTableRecord
  2
ACAD_DSTYLE_DIM_EXT1_LINETYPE
 70
     0
  0
APPID
  5
71E5
330
1A5A
100
AcDbSymbolTableRecord
100
AcDbRegAppTableRecord
  2
ACAD_DSTYLE_DIM_EXT2_LINETYPE
 70
     0
  0
APPID
  5
7550
330
1A5A
100
AcDbSymbolTableRecord
100
AcDbRegAppTableRecord
  2
ACAD_DSTYLE_DIMRADIAL_EXTENSION
 70
     0
  0
ENDTAB
  0
TABLE
  2
DIMSTYLE
  5
1A5B
330
0
100
AcDbSymbolTable
 70
    19
100
AcDbDimStyleTable
 71
     1
340
1AEC
  0
DIMSTYLE
105
1AA8
330
1A5B
100
AcDbSymbolTableRecord
100
AcDbDimStyleTableRecord
  2
STANDARD
 70
     0
271
     2
272
     2
279
     2
284
     7
285
     7
286
     7
340
1AC1
  0
DIMSTYLE
105
1AEC
102
{ACAD_REACTORS
330
1B41
102
}
330
1A5B
100
AcDbSymbolTableRecord
100
AcDbDimStyleTableRecord
  2
AM_ANSI
 70
     0
  4
mm
 41
0.12
 42
0.05
 43
0.5
 44
0.1
 47
0.1
 48
0.1
 78
     7
140
0.12
141
0.0
146
0.71
147
0.06
176
   256
177
   256
178
     2
271
     2
272
     2
279
     2
284
     7
285
     7
286
     7
340
1AC1
  0
DIMSTYLE
105
1AED
330
1A5B
100
AcDbSymbolTableRecord
100
AcDbDimStyleTableRecord
  2
AM_ANSI$3
 70
     0
  4
mm
 41
0.12
 42
0.05
 43
0.5
 44
0.1
 47
0.1
 48
0.1
 78
     7
140
0.12
141
0.0
146
0.71
147
0.06
176
   256
177
   256
178
     2
271
     2
272
     2
279
     2
284
     7
285
     7
286
     7
340
1AC1
  0
DIMSTYLE
105
1AEE
330
1A5B
100
AcDbSymbolTableRecord
100
AcDbDimStyleTableRecord
  2
AM_ANSI$4
 70
     0
  4
mm
 41
0.12
 42
0.05
 43
0.5
 44
0.1
 47
0.1
 48
0.1
 78
     7
140
0.12
141
0.0
146
0.71
147
0.06
176
   256
177
   256
178
     2
271
     2
272
     2
279
     2
284
     7
285
     7
286
     7
340
1AC1
  0
DIMSTYLE
105
1AEF
330
1A5B
100
AcDbSymbolTableRecord
100
AcDbDimStyleTableRecord
  2
AM_ANSI$7
 70
     0
  4
mm
 41
0.12
 42
0.05
 43
0.5
 44
0.1
 47
0.1
 48
0.1
 78
     7
140
0.12
141
0.0
146
0.71
147
0.06
176
   256
177
   256
178
     2
271
     2
272
     2
279
     2
284
     7
285
     7
286
     7
340
1AC1
  0
DIMSTYLE
105
1AF0
330
1A5B
100
AcDbSymbolTableRecord
100
AcDbDimStyleTableRecord
  2
AM_ANSI$SF
 70
     0
  4
mm
 41
0.12
 42
0.05
 43
0.5
 44
0.1
 47
0.1
 48
0.1
 75
     1
 76
     1
 78
     7
140
0.12
141
0.0
146
0.71
147
0.06
176
   256
177
   256
178
     2
271
     2
272
     2
279
     2
284
     7
285
     7
286
     7
340
1AC1
  0
DIMSTYLE
105
1AF1
330
1A5B
100
AcDbSymbolTableRecord
100
AcDbDimStyleTableRecord
  2
AM_ANSI$SH
 70
     0
  4
mm
 41
0.12
 42
0.05
 43
0.5
 44
0.1
 47
0.1
 48
0.1
 75
     1
 76
     1
 78
     7
140
0.12
141
0.0
146
0.71
147
0.06
173
     1
176
   256
177
   256
178
     2
271
     2
272
     2
279
     2
284
     7
285
     7
286
     7
340
1AC1
  0
DIMSTYLE
105
1C44
102
{ACAD_REACTORS
330
CFC9
330
CFCB
330
CFCC
330
CFCE
330
CFCF
330
CFD0
330
CFD2
330
CFD3
330
CFD5
330
CFD6
330
CFDA
330
CFE0
330
CFE1
330
CFE2
330
CFE7
330
CFE8
330
CFE9
330
CFD9
102
}
330
1A5B
100
AcDbSymbolTableRecord
100
AcDbDimStyleTableRecord
  2
Default
 70
     0
 40
14.28571428571428
 41
2.5
 42
1.600199999999999
 43
5.999999999999999
 44
3.174999999999999
 45
0.00000001
 46
10.0
 73
     0
 79
     1
140
3.04800009727478
143
1.0
147
0.8
171
     1
176
   256
177
   256
178
   256
179
     1
271
     1
272
     2
274
     1
284
     4
285
     4
340
1C42
371
    -1
372
    -1
  0
DIMSTYLE
105
1C47
102
{ACAD_REACTORS
330
4518
102
}
330
1A5B
100
AcDbSymbolTableRecord
100
AcDbDimStyleTableRecord
  2
AM_ISO
 70
     0
  4
"
 41
3.5
 42
1.0
 43
10.0
 44
1.0
 47
0.1
 48
0.1
 73
     0
 74
     0
 77
     1
 78
     8
 79
     2
140
3.5
141
0.0
143
0.0393701
146
0.71
147
1.5
172
     1
176
   256
177
   256
178
     2
271
     2
272
     3
274
     4
283
     0
284
     8
340
1AA6
371
    -1
372
    -1
1001
ACAD_DSTYLE_DIMJAG
1070
   388
1040
1.5
1001
ACAD_DSTYLE_DIMBREAK
1070
   391
1040
3.75
1001
ACAD_DSTYLE_DIMARC_LENGTH_SYMBOL
1070
   379
1070
     1
1001
ACAD_DSTYLE_DIM_LINETYPE
1070
   380
1005
1AAB
1001
ACAD_DSTYLE_DIM_EXT1_LINETYPE
1070
   381
1005
1AAB
1001
ACAD_DSTYLE_DIM_EXT2_LINETYPE
1070
   382
1005
1AAB
  0
DIMSTYLE
105
1C48
330
1A5B
100
AcDbSymbolTableRecord
100
AcDbDimStyleTableRecord
  2
AM_ISO$3
 70
     0
  4
"
 41
3.5
 42
1.0
 43
10.0
 44
1.0
 47
0.1
 48
0.1
 73
     0
 77
     1
 78
     8
 79
     2
140
3.5
141
0.0
143
0.0393701
146
0.71
147
1.5
176
   256
177
   256
178
     2
271
     2
272
     3
274
     4
283
     0
284
     8
288
     1
289
     0
340
1AA6
371
    -1
372
    -1
1001
ACAD_DSTYLE_DIMBREAK
1070
   391
1040
3.75
1001
ACAD_DSTYLE_DIMJAG
1070
   388
1040
1.5
1001
ACAD_DSTYLE_DIMARC_LENGTH_SYMBOL
1070
   379
1070
     1
1001
ACAD_DSTYLE_DIM_LINETYPE
1070
   380
1005
1AAB
1001
ACAD_DSTYLE_DIM_EXT1_LINETYPE
1070
   381
1005
1AAB
1001
ACAD_DSTYLE_DIM_EXT2_LINETYPE
1070
   382
1005
1AAB
  0
DIMSTYLE
105
1C49
330
1A5B
100
AcDbSymbolTableRecord
100
AcDbDimStyleTableRecord
  2
AM_ISO$4
 70
     0
  4
"
 41
3.5
 42
1.0
 43
10.0
 44
1.0
 47
0.1
 48
0.1
 73
     0
 77
     1
 78
     8
 79
     2
140
3.5
141
0.0
143
0.0393701
146
0.71
147
1.5
176
   256
177
   256
178
     2
271
     2
272
     3
274
     4
283
     0
284
     8
288
     1
289
     0
340
1AA6
371
    -1
372
    -1
1001
ACAD_DSTYLE_DIMBREAK
1070
   391
1040
3.75
1001
ACAD_DSTYLE_DIMJAG
1070
   388
1040
1.5
1001
ACAD_DSTYLE_DIMARC_LENGTH_SYMBOL
1070
   379
1070
     1
1001
ACAD_DSTYLE_DIM_LINETYPE
1070
   380
1005
1AAB
1001
ACAD_DSTYLE_DIM_EXT1_LINETYPE
1070
   381
1005
1AAB
1001
ACAD_DSTYLE_DIM_EXT2_LINETYPE
1070
   382
1005
1AAB
  0
DIMSTYLE
105
1C4A
330
1A5B
100
AcDbSymbolTableRecord
100
AcDbDimStyleTableRecord
  2
AM_ISO$6
 70
     0
  4
"
 41
3.5
 42
1.0
 43
10.0
 44
1.0
 47
0.1
 48
0.1
 73
     0
 74
     0
 78
     8
 79
     2
140
3.5
141
0.0
143
0.0393701
146
0.71
147
1.5
172
     1
176
   256
177
   256
178
     2
271
     2
272
     3
274
     4
283
     0
284
     8
340
1AA6
371
    -1
372
    -1
1001
ACAD_DSTYLE_DIMBREAK
1070
   391
1040
3.75
1001
ACAD_DSTYLE_DIMJAG
1070
   388
1040
1.5
1001
ACAD_DSTYLE_DIMARC_LENGTH_SYMBOL
1070
   379
1070
     1
1001
ACAD_DSTYLE_DIM_LINETYPE
1070
   380
1005
1AAB
1001
ACAD_DSTYLE_DIM_EXT1_LINETYPE
1070
   381
1005
1AAB
1001
ACAD_DSTYLE_DIM_EXT2_LINETYPE
1070
   382
1005
1AAB
  0
DIMSTYLE
105
1C4B
330
1A5B
100
AcDbSymbolTableRecord
100
AcDbDimStyleTableRecord
  2
AM_ISO$7
 70
     0
  4
"
 41
3.5
 42
1.0
 43
10.0
 44
1.0
 47
0.1
 48
0.1
 73
     0
 74
     0
 77
     1
 78
     8
 79
     2
140
3.5
141
0.0
143
0.0393701
146
0.71
147
1.5
172
     1
176
   256
177
   256
178
     2
271
     2
272
     3
274
     4
283
     0
284
     8
340
1AA6
371
    -1
372
    -1
1001
ACAD_DSTYLE_DIMBREAK
1070
   391
1040
3.75
1001
ACAD_DSTYLE_DIMJAG
1070
   388
1040
1.5
1001
ACAD_DSTYLE_DIMARC_LENGTH_SYMBOL
1070
   379
1070
     1
1001
ACAD_DSTYLE_DIM_LINETYPE
1070
   380
1005
1AAB
1001
ACAD_DSTYLE_DIM_EXT1_LINETYPE
1070
   381
1005
1AAB
1001
ACAD_DSTYLE_DIM_EXT2_LINETYPE
1070
   382
1005
1AAB
  0
DIMSTYLE
105
1C4C
330
1A5B
100
AcDbSymbolTableRecord
100
AcDbDimStyleTableRecord
  2
AM_ISO$SF
 70
     0
  4
"
 41
3.5
 42
1.0
 43
10.0
 44
1.0
 47
0.1
 48
0.1
 73
     0
 74
     0
 75
     1
 76
     1
 77
     1
 78
     8
 79
     2
140
3.5
141
0.0
143
0.0393701
146
0.71
147
1.5
172
     1
176
   256
177
   256
178
     2
271
     2
272
     3
274
     4
283
     0
284
     8
340
1AA6
371
    -1
372
    -1
1001
ACAD_DSTYLE_DIMBREAK
1070
   391
1040
3.75
1001
ACAD_DSTYLE_DIMJAG
1070
   388
1040
1.5
1001
ACAD_DSTYLE_DIMARC_LENGTH_SYMBOL
1070
   379
1070
     1
1001
ACAD_DSTYLE_DIM_LINETYPE
1070
   380
1005
1AAB
1001
ACAD_DSTYLE_DIM_EXT1_LINETYPE
1070
   381
1005
1AAB
1001
ACAD_DSTYLE_DIM_EXT2_LINETYPE
1070
   382
1005
1AAB
  0
DIMSTYLE
105
1C4D
330
1A5B
100
AcDbSymbolTableRecord
100
AcDbDimStyleTableRecord
  2
AM_ISO$SH
 70
     0
  4
"
 41
3.5
 42
1.0
 43
10.0
 44
1.0
 47
0.1
 48
0.1
 73
     0
 74
     0
 75
     1
 76
     1
 77
     1
 78
     8
 79
     2
140
3.5
141
0.0
143
0.0393701
144
2.0
146
0.71
147
1.5
172
     1
173
     1
176
   256
177
   256
178
     2
271
     2
272
     3
274
     4
283
     0
284
     8
340
1AA6
343
1B0D
371
    -1
372
    -1
1001
ACAD_DSTYLE_DIMBREAK
1070
   391
1040
3.75
1001
ACAD_DSTYLE_DIMJAG
1070
   388
1040
1.5
1001
ACAD_DSTYLE_DIMARC_LENGTH_SYMBOL
1070
   379
1070
     1
1001
ACAD_DSTYLE_DIM_LINETYPE
1070
   380
1005
1AAB
1001
ACAD_DSTYLE_DIM_EXT1_LINETYPE
1070
   381
1005
1AAB
1001
ACAD_DSTYLE_DIM_EXT2_LINETYPE
1070
   382
1005
1AAB
  0
ENDTAB
  0
TABLE
  2
BLOCK_RECORD
  5
1A52
330
0
100
AcDbSymbolTable
 70
    59
  0
BLOCK_RECORD
  5
1ABC
330
1A52
100
AcDbSymbolTableRecord
100
AcDbBlockTableRecord
  2
*Model_Space
340
1ABF
  0
BLOCK_RECORD
  5
1AB8
330
1A52
100
AcDbSymbolTableRecord
100
AcDbBlockTableRecord
  2
*Paper_Space
340
1ABB
  0
BLOCK_RECORD
  5
1AFB
330
1A52
100
AcDbSymbolTableRecord
100
AcDbBlockTableRecord
  2
LINES
340
0
102
{BLKREFS
331
FCE
102
}
  0
BLOCK_RECORD
  5
1B0D
330
1A52
100
AcDbSymbolTableRecord
100
AcDbBlockTableRecord
  2
GENAXEH
340
0
  0
BLOCK_RECORD
  5
1BAD
102
{ACAD_XDICTIONARY
360
1BAE
102
}
330
1A52
100
AcDbSymbolTableRecord
100
AcDbBlockTableRecord
  2
AIR FLOW ARROW
340
0
102
{BLKREFS
331
A2A3
331
A2A4
331
A2A5
102
}
  0
BLOCK_RECORD
  5
CFEF
330
1A52
100
AcDbSymbolTableRecord
100
AcDbBlockTableRecord
  2
*D37
340
0
  0
BLOCK_RECORD
  5
CFFC
330
1A52
100
AcDbSymbolTableRecord
100
AcDbBlockTableRecord
  2
*D38
340
0
  0
BLOCK_RECORD
  5
D009
330
1A52
100
AcDbSymbolTableRecord
100
AcDbBlockTableRecord
  2
*D39
340
0
  0
BLOCK_RECORD
  5
D016
330
1A52
100
AcDbSymbolTableRecord
100
AcDbBlockTableRecord
  2
*D40
340
0
  0
BLOCK_RECORD
  5
D023
330
1A52
100
AcDbSymbolTableRecord
100
AcDbBlockTableRecord
  2
*D41
340
0
  0
BLOCK_RECORD
  5
D030
330
1A52
100
AcDbSymbolTableRecord
100
AcDbBlockTableRecord
  2
*D42
340
0
  0
BLOCK_RECORD
  5
D04A
330
1A52
100
AcDbSymbolTableRecord
100
AcDbBlockTableRecord
  2
*D44
340
0
  0
BLOCK_RECORD
  5
D057
330
1A52
100
AcDbSymbolTableRecord
100
AcDbBlockTableRecord
  2
*D45
340
0
  0
BLOCK_RECORD
  5
D071
330
1A52
100
AcDbSymbolTableRecord
100
AcDbBlockTableRecord
  2
*D47
340
0
  0
BLOCK_RECORD
  5
D07E
330
1A52
100
AcDbSymbolTableRecord
100
AcDbBlockTableRecord
  2
*D48
340
0
  0
BLOCK_RECORD
  5
D096
330
1A52
100
AcDbSymbolTableRecord
100
AcDbBlockTableRecord
  2
*D50
340
0
  0
BLOCK_RECORD
  5
D0A3
330
1A52
100
AcDbSymbolTableRecord
100
AcDbBlockTableRecord
  2
*D51
340
0
  0
BLOCK_RECORD
  5
D0B0
330
1A52
100
AcDbSymbolTableRecord
100
AcDbBlockTableRecord
  2
*D52
340
0
  0
BLOCK_RECORD
  5
D0BD
330
1A52
100
AcDbSymbolTableRecord
100
AcDbBlockTableRecord
  2
*D53
340
0
  0
BLOCK_RECORD
  5
D0CA
330
1A52
100
AcDbSymbolTableRecord
100
AcDbBlockTableRecord
  2
*D54
340
0
  0
BLOCK_RECORD
  5
D0D7
330
1A52
100
AcDbSymbolTableRecord
100
AcDbBlockTableRecord
  2
*D55
340
0
  0
BLOCK_RECORD
  5
D0E4
330
1A52
100
AcDbSymbolTableRecord
100
AcDbBlockTableRecord
  2
*D56
340
0
  0
BLOCK_RECORD
  5
D0F1
330
1A52
100
AcDbSymbolTableRecord
100
AcDbBlockTableRecord
  2
*D57
340
0
  0
ENDTAB
  0
ENDSEC
  0
SECTION
  2
BLOCKS
  0
BLOCK
  5
1ABD
330
1ABC
100
AcDbEntity
  8
0
100
AcDbBlockBegin
  2
*Model_Space
 70
     0
 10
0.0
 20
0.0
 30
0.0
  3
*Model_Space
  1

  0
ENDBLK
  5
1ABE
330
1ABC
100
AcDbEntity
  8
0
100
AcDbBlockEnd
  0
BLOCK
  5
1AB9
330
1AB8
100
AcDbEntity
 67
     1
  8
0
100
AcDbBlockBegin
  2
*Paper_Space
 70
     0
 10
0.0
 20
0.0
 30
0.0
  3
*Paper_Space
  1

  0
ENDBLK
  5
1ABA
330
1AB8
100
AcDbEntity
 67
     1
  8
0
100
AcDbBlockEnd
  0
BLOCK
  5
1AFC
330
1AFB
100
AcDbEntity
  8
0
100
AcDbBlockBegin
  2
LINES
 70
     0
 10
0.0
 20
0.0
 30
0.0
  3
LINES
  1

  0
ENDBLK
  5
F67
330
1AFB
100
AcDbEntity
  8
0
100
AcDbBlockEnd
  0
BLOCK
  5
1B0E
330
1B0D
100
AcDbEntity
  8
0
100
AcDbBlockBegin
  2
GENAXEH
 70
     0
 10
0.0
 20
0.0
 30
0.0
  3
GENAXEH
  1

  0
LINE
  5
15F7
330
1B0D
100
AcDbEntity
  8
0
100
AcDbLine
 10
-1.0
 20
0.0
 30
0.0
 11
1.0
 21
0.0
 31
0.0
  0
ENDBLK
  5
15F9
330
1B0D
100
AcDbEntity
  8
0
100
AcDbBlockEnd
  0
BLOCK
  5
1BB0
330
1BAD
100
AcDbEntity
  8
0
100
AcDbBlockBegin
  2
AIR FLOW ARROW
 70
     0
 10
0.0
 20
0.0
 30
0.0
  3
AIR FLOW ARROW
  1

  0
HATCH
  5
1BB1
330
1BAD
100
AcDbEntity
  8
OUTLINE
100
AcDbHatch
 10
0.0
 20
0.0
 30
0.0
210
0.0
220
0.0
230
1.0
  2
SOLID
 70
     1
 71
     0
 91
        1
 92
        1
 93
        3
 72
     1
 10
0.0
 20
-5.867757036044736
 11
-1.171875
 21
1.163492963955263
 72
     1
 10
-1.171875
 20
1.163492963955263
 11
1.171875
 21
1.163492963955263
 72
     1
 10
1.171875
 20
1.163492963955263
 11
0.0
 21
-5.867757036044736
 97
        0
 75
     0
 76
     1
 98
        1
 10
0.0
 20
0.0
450
        0
451
        0
460
0.0
461
0.0
452
        0
462
0.0
453
        0
470

  0
LINE
  5
1BB2
330
1BAD
100
AcDbEntity
  8
Sketch Geometry (ANSI)
100
AcDbLine
 10
1.171875
 20
1.163492963955263
 30
0.0
 11
0.0
 21
-5.867757036044736
 31
0.0
  0
LINE
  5
1BB3
330
1BAD
100
AcDbEntity
  8
Sketch Geometry (ANSI)
100
AcDbLine
 10
0.0
 20
-5.867757036044736
 30
0.0
 11
-1.171875
 21
1.163492963955263
 31
0.0
  0
LINE
  5
1BB4
330
1BAD
100
AcDbEntity
  8
Sketch Geometry (ANSI)
100
AcDbLine
 10
-1.171875
 20
1.163492963955263
 30
0.0
 11
1.171875
 21
1.163492963955263
 31
0.0
  0
LINE
  5
1BB5
330
1BAD
100
AcDbEntity
  8
OUTLINE
100
AcDbLine
 10
0.0
 20
1.157503906667898
 30
0.0
 11
0.0
 21
5.867757036044736
 31
0.0
  0
ENDBLK
  5
1BB6
330
1BAD
100
AcDbEntity
  8
0
100
AcDbBlockEnd
  0
BLOCK
  5
CFF0
330
CFEF
100
AcDbEntity
  8
0
100
AcDbBlockBegin
  2
*D37
 70
     1
 10
0.0
 20
0.0
 30
0.0
  3
*D37
  1

  0
LINE
  5
DC36
330
CFEF
100
AcDbEntity
  8
TEXT
440
 16777216
100
AcDbLine
 10
4104.046391509639
 20
1319.415098479438
 30
0.0
 11
4104.046391509639
 21
1187.531585120337
 31
0.0
  0
LINE
  5
DC37
330
CFEF
100
AcDbEntity
  8
TEXT
440
 16777216
100
AcDbLine
 10
2418.556391509662
 20
1319.415098479832
 30
0.0
 11
2418.556391509662
 21
1187.531585120337
 31
0.0
  0
LINE
  5
DC38
330
CFEF
100
AcDbEntity
  8
TEXT
440
 16777216
100
AcDbLine
 10
4068.332105795353
 20
1232.88872797748
 30
0.0
 11
3462.777426100146
 21
1232.88872797748
 31
0.0
  0
LINE
  5
DC39
330
CFEF
100
AcDbEntity
  8
TEXT
440
 16777216
100
AcDbLine
 10
2454.270677223947
 20
1232.88872797748
 30
0.0
 11
3090.963311538312
 21
1232.88872797748
 31
0.0
  0
SOLID
  5
DC3A
330
CFEF
100
AcDbEntity
  8
TEXT
440
 16777216
100
AcDbTrace
 10
4068.332105795353
 20
1238.841108929861
 30
0.0
 11
4068.332105795353
 21
1226.936347025099
 31
0.0
 12
4104.046391509639
 22
1232.88872797748
 32
0.0
 13
4104.046391509639
 23
1232.88872797748
 33
0.0
  0
SOLID
  5
DC3B
330
CFEF
100
AcDbEntity
  8
TEXT
440
 16777216
100
AcDbTrace
 10
2454.270677223947
 20
1238.841108929861
 30
0.0
 11
2454.270677223947
 21
1226.936347025099
 31
0.0
 12
2418.556391509662
 22
1232.88872797748
 32
0.0
 13
2418.556391509662
 23
1232.88872797748
 33
0.0
  0
MTEXT
  5
DC3C
330
CFEF
100
AcDbEntity
  8
TEXT
440
 16777216
100
AcDbMText
 10
3102.391882966883
 20
1255.654419963745
 30
0.0
 40
43.54285853249685
 41
0.0
 71
     1
 72
     1
  1
\A1;1685{ SPIGOT}
  7
Note Text
 73
     1
 44
1.0
  0
POINT
  5
DC3D
330
CFEF
100
AcDbEntity
  8
Defpoints
 62
     0
440
 16777216
100
AcDbPoint
 10
4104.046391509639
 20
1342.275098479438
 30
0.0
  0
POINT
  5
DC3E
330
CFEF
100
AcDbEntity
  8
Defpoints
 62
     0
440
 16777216
100
AcDbPoint
 10
2418.556391509662
 20
1342.275098479832
 30
0.0
  0
POINT
  5
DC3F
330
CFEF
100
AcDbEntity
  8
Defpoints
 62
     0
440
 16777216
100
AcDbPoint
 10
2418.556391509662
 20
1232.88872797748
 30
0.0
  0
ENDBLK
  5
CFF1
330
CFEF
100
AcDbEntity
  8
0
100
AcDbBlockEnd
  0
BLOCK
  5
CFFD
330
CFFC
100
AcDbEntity
  8
0
100
AcDbBlockBegin
  2
*D38
 70
     1
 10
0.0
 20
0.0
 30
0.0
  3
*D38
  1

  0
LINE
  5
DBB4
330
CFFC
100
AcDbEntity
  8
TEXT
440
 16777216
100
AcDbLine
 10
4271.270391499306
 20
2184.247862332123
 30
0.0
 11
4271.270391499306
 21
1945.883694933512
 31
0.0
  0
LINE
  5
DBB5
330
CFFC
100
AcDbEntity
  8
TEXT
440
 16777216
100
AcDbLine
 10
2251.83139151008
 20
2184.247862332439
 30
0.0
 11
2251.83139151008
 21
1945.883694933512
 31
0.0
  0
LINE
  5
DBB6
330
CFFC
100
AcDbEntity
  8
TEXT
440
 16777216
100
AcDbLine
 10
4235.55610578502
 20
1991.240837790655
 30
0.0
 11
3779.482595738445
 21
1991.240837790655
 31
0.0
  0
LINE
  5
DBB7
330
CFFC
100
AcDbEntity
  8
TEXT
440
 16777216
100
AcDbLine
 10
2287.545677224366
 20
1991.240837790655
 30
0.0
 11
2762.275003801053
 21
1991.240837790655
 31
0.0
  0
SOLID
  5
DBB8
330
CFFC
100
AcDbEntity
  8
TEXT
440
 16777216
100
AcDbTrace
 10
4235.55610578502
 20
1997.193218743036
 30
0.0
 11
4235.55610578502
 21
1985.288456838274
 31
0.0
 12
4271.270391499306
 22
1991.240837790655
 32
0.0
 13
4271.270391499306
 23
1991.240837790655
 33
0.0
  0
SOLID
  5
DBB9
330
CFFC
100
AcDbEntity
  8
TEXT
440
 16777216
100
AcDbTrace
 10
2287.545677224366
 20
1997.193218743036
 30
0.0
 11
2287.545677224366
 21
1985.288456838274
 31
0.0
 12
2251.83139151008
 22
1991.240837790655
 32
0.0
 13
2251.83139151008
 23
1991.240837790655
 33
0.0
  0
MTEXT
  5
DBBA
330
CFFC
100
AcDbEntity
  8
TEXT
440
 16777216
100
AcDbMText
 10
2773.703575229625
 20
2020.015970628786
 30
0.0
 40
43.54285853249685
 41
0.0
 71
     1
 72
     1
  1
\A1;{(}2019{ OPTIONAL SPRING MTG CTRS)}
  7
Note Text
 73
     1
 44
1.0
  0
POINT
  5
DBBB
330
CFFC
100
AcDbEntity
  8
Defpoints
 62
     0
440
 16777216
100
AcDbPoint
 10
4271.270391499306
 20
2207.107862332123
 30
0.0
  0
POINT
  5
DBBC
330
CFFC
100
AcDbEntity
  8
Defpoints
 62
     0
440
 16777216
100
AcDbPoint
 10
2251.83139151008
 20
2207.107862332439
 30
0.0
  0
POINT
  5
DBBD
330
CFFC
100
AcDbEntity
  8
Defpoints
 62
     0
440
 16777216
100
AcDbPoint
 10
2251.83139151008
 20
1991.240837790655
 30
0.0
  0
ENDBLK
  5
CFFE
330
CFFC
100
AcDbEntity
  8
0
100
AcDbBlockEnd
  0
BLOCK
  5
D00A
330
D009
100
AcDbEntity
  8
0
100
AcDbBlockBegin
  2
*D39
 70
     1
 10
0.0
 20
0.0
 30
0.0
  3
*D39
  1

  0
LINE
  5
DBBE
330
D009
100
AcDbEntity
  8
TEXT
440
 16777216
100
AcDbLine
 10
2283.326391510104
 20
2181.247862332419
 30
0.0
 11
2283.326391510104
 21
2024.650933589093
 31
0.0
  0
LINE
  5
DBBF
330
D009
100
AcDbEntity
  8
TEXT
440
 16777216
100
AcDbLine
 10
4238.826391510101
 20
2181.247862332109
 30
0.0
 11
4238.826391510101
 21
2024.650933589093
 31
0.0
  0
LINE
  5
DBC0
330
D009
100
AcDbEntity
  8
TEXT
440
 16777216
100
AcDbLine
 10
2319.04067722439
 20
2070.008076446236
 30
0.0
 11
3038.308506035625
 21
2070.008076446236
 31
0.0
  0
LINE
  5
DBC1
330
D009
100
AcDbEntity
  8
TEXT
440
 16777216
100
AcDbLine
 10
4203.112105795816
 20
2070.008076446236
 30
0.0
 11
3483.84427698458
 21
2070.008076446236
 31
0.0
  0
SOLID
  5
DBC2
330
D009
100
AcDbEntity
  8
TEXT
440
 16777216
100
AcDbTrace
 10
2319.04067722439
 20
2075.960457398617
 30
0.0
 11
2319.04067722439
 21
2064.055695493856
 31
0.0
 12
2283.326391510104
 22
2070.008076446236
 32
0.0
 13
2283.326391510104
 23
2070.008076446236
 33
0.0
  0
SOLID
  5
DBC3
330
D009
100
AcDbEntity
  8
TEXT
440
 16777216
100
AcDbTrace
 10
4203.112105795816
 20
2075.960457398617
 30
0.0
 11
4203.112105795816
 21
2064.055695493856
 31
0.0
 12
4238.826391510101
 22
2070.008076446236
 32
0.0
 13
4238.826391510101
 23
2070.008076446236
 33
0.0
  0
MTEXT
  5
DBC4
330
D009
100
AcDbEntity
  8
TEXT
440
 16777216
100
AcDbMText
 10
3049.737077464196
 20
2092.671417858381
 30
0.0
 40
43.54285853249685
 41
0.0
 71
     1
 72
     1
  1
\A1;1955{ MTG CTRS}
  7
Note Text
 73
     1
 44
1.0
  0
POINT
  5
DBC5
330
D009
100
AcDbEntity
  8
Defpoints
 62
     0
440
 16777216
100
AcDbPoint
 10
2283.326391510104
 20
2204.107862332419
 30
0.0
  0
POINT
  5
DBC6
330
D009
100
AcDbEntity
  8
Defpoints
 62
     0
440
 16777216
100
AcDbPoint
 10
4238.826391510101
 20
2204.107862332109
 30
0.0
  0
POINT
  5
DBC7
330
D009
100
AcDbEntity
  8
Defpoints
 62
     0
440
 16777216
100
AcDbPoint
 10
4238.826391510101
 20
2070.008076446236
 30
0.0
  0
ENDBLK
  5
D00B
330
D009
100
AcDbEntity
  8
0
100
AcDbBlockEnd
  0
BLOCK
  5
D017
330
D016
100
AcDbEntity
  8
0
100
AcDbBlockBegin
  2
*D40
 70
     1
 10
0.0
 20
0.0
 30
0.0
  3
*D40
  1

  0
LINE
  5
DC68
330
D016
100
AcDbEntity
  8
TEXT
440
 16777216
100
AcDbLine
 10
4685.227373642405
 20
1338.725098479439
 30
0.0
 11
4605.077831973424
 21
1338.725098479439
 31
0.0
  0
LINE
  5
DC69
330
D016
100
AcDbEntity
  8
TEXT
440
 16777216
100
AcDbLine
 10
4685.227373642312
 20
1601.368098479437
 30
0.0
 11
4605.077831973424
 21
1601.368098479438
 31
0.0
  0
LINE
  5
DC6A
330
D016
100
AcDbEntity
  8
TEXT
440
 16777216
100
AcDbLine
 10
4650.434974830567
 20
1374.439384193725
 30
0.0
 11
4650.434974830567
 21
1565.653812765151
 31
0.0
  0
LINE
  5
DC6B
330
D016
100
AcDbEntity
  8
TEXT
440
 16777216
100
AcDbLine
 10
4650.434974830567
 20
1601.368098479437
 30
0.0
 11
4650.434974830567
 21
1637.082384193723
 31
0.0
  0
SOLID
  5
DC6C
330
D016
100
AcDbEntity
  8
TEXT
440
 16777216
100
AcDbTrace
 10
4644.482593878186
 20
1374.439384193725
 30
0.0
 11
4656.387355782947
 21
1374.439384193725
 31
0.0
 12
4650.434974830567
 22
1338.725098479439
 32
0.0
 13
4650.434974830567
 23
1338.725098479439
 33
0.0
  0
SOLID
  5
DC6D
330
D016
100
AcDbEntity
  8
TEXT
440
 16777216
100
AcDbTrace
 10
4644.482593878186
 20
1565.653812765151
 30
0.0
 11
4656.387355782947
 21
1565.653812765151
 31
0.0
 12
4650.434974830567
 22
1601.368098479437
 32
0.0
 13
4650.434974830567
 23
1601.368098479437
 33
0.0
  0
MTEXT
  5
DC6E
330
D016
100
AcDbEntity
  8
TEXT
440
 16777216
100
AcDbMText
 10
4627.757011907832
 20
1648.510955622295
 30
0.0
 40
43.54285853249685
 41
0.0
 71
     1
 72
     1
  1
\A1;263{ SPIGOT}
  7
Note Text
 11
0.0000000000000001
 21
1.0
 31
0.0
 73
     1
 44
1.0
  0
POINT
  5
DC6F
330
D016
100
AcDbEntity
  8
Defpoints
 62
     0
440
 16777216
100
AcDbPoint
 10
4708.087373642404
 20
1338.725098479439
 30
0.0
  0
POINT
  5
DC70
330
D016
100
AcDbEntity
  8
Defpoints
 62
     0
440
 16777216
100
AcDbPoint
 10
4708.087373642313
 20
1601.368098479437
 30
0.0
  0
POINT
  5
DC71
330
D016
100
AcDbEntity
  8
Defpoints
 62
     0
440
 16777216
100
AcDbPoint
 10
4650.434974830567
 20
1601.368098479437
 30
0.0
  0
ENDBLK
  5
D018
330
D016
100
AcDbEntity
  8
0
100
AcDbBlockEnd
  0
BLOCK
  5
D024
330
D023
100
AcDbEntity
  8
0
100
AcDbBlockBegin
  2
*D41
 70
     1
 10
0.0
 20
0.0
 30
0.0
  3
*D41
  1

  0
LINE
  5
DC72
330
D023
100
AcDbEntity
  8
TEXT
440
 16777216
100
AcDbLine
 10
5147.789373642428
 20
1320.325113980155
 30
0.0
 11
4634.389225630132
 21
1320.325113980155
 31
0.0
  0
LINE
  5
DC73
330
D023
100
AcDbEntity
  8
TEXT
440
 16777216
100
AcDbLine
 10
4685.227373642405
 20
1338.725098479439
 30
0.0
 11
4634.389225630132
 21
1338.725098479439
 31
0.0
  0
LINE
  5
DC74
330
D023
100
AcDbEntity
  8
TEXT
440
 16777216
100
AcDbLine
 10
4679.746368487276
 20
1374.439384193725
 30
0.0
 11
4679.746368487276
 21
1410.15366990801
 31
0.0
  0
LINE
  5
DC75
330
D023
100
AcDbEntity
  8
TEXT
440
 16777216
100
AcDbLine
 10
4679.746368487276
 20
1284.61082826587
 30
0.0
 11
4679.746368487276
 21
1248.896542551584
 31
0.0
  0
SOLID
  5
DC76
330
D023
100
AcDbEntity
  8
TEXT
440
 16777216
100
AcDbTrace
 10
4673.793987534895
 20
1374.439384193725
 30
0.0
 11
4685.698749439657
 21
1374.439384193725
 31
0.0
 12
4679.746368487276
 22
1338.725098479439
 32
0.0
 13
4679.746368487276
 23
1338.725098479439
 33
0.0
  0
SOLID
  5
DC77
330
D023
100
AcDbEntity
  8
TEXT
440
 16777216
100
AcDbTrace
 10
4673.793987534895
 20
1284.61082826587
 30
0.0
 11
4685.698749439657
 21
1284.61082826587
 31
0.0
 12
4679.746368487276
 22
1320.325113980155
 32
0.0
 13
4679.746368487276
 23
1320.325113980155
 33
0.0
  0
MTEXT
  5
DC78
330
D023
100
AcDbEntity
  8
TEXT
440
 16777216
100
AcDbMText
 10
4656.980676501012
 20
1180.853482124414
 30
0.0
 40
43.54285853249685
 41
0.0
 71
     1
 72
     1
  1
\A1;18
  7
Note Text
 11
0.0000000000000001
 21
1.0
 31
0.0
 73
     1
 44
1.0
  0
POINT
  5
DC79
330
D023
100
AcDbEntity
  8
Defpoints
 62
     0
440
 16777216
100
AcDbPoint
 10
5170.649373642429
 20
1320.325113980155
 30
0.0
  0
POINT
  5
DC7A
330
D023
100
AcDbEntity
  8
Defpoints
 62
     0
440
 16777216
100
AcDbPoint
 10
4708.087373642404
 20
1338.725098479439
 30
0.0
  0
POINT
  5
DC7B
330
D023
100
AcDbEntity
  8
Defpoints
 62
     0
440
 16777216
100
AcDbPoint
 10
4679.746368487276
 20
1338.725098479439
 30
0.0
  0
ENDBLK
  5
D025
330
D023
100
AcDbEntity
  8
0
100
AcDbBlockEnd
  0
BLOCK
  5
D031
330
D030
100
AcDbEntity
  8
0
100
AcDbBlockBegin
  2
*D42
 70
     1
 10
0.0
 20
0.0
 30
0.0
  3
*D42
  1

  0
LINE
  5
DC7C
330
D030
100
AcDbEntity
  8
TEXT
440
 16777216
100
AcDbLine
 10
5516.79537364258
 20
1724.195236080318
 30
0.0
 11
5577.385282037844
 21
1724.195236080318
 31
0.0
  0
LINE
  5
DC7D
330
D030
100
AcDbEntity
  8
TEXT
440
 16777216
100
AcDbLine
 10
5516.745373642716
 20
1368.415236080646
 30
0.0
 11
5577.385282037844
 21
1368.415236080646
 31
0.0
  0
LINE
  5
DC7E
330
D030
100
AcDbEntity
  8
TEXT
440
 16777216
100
AcDbLine
 10
5532.0281391807
 20
1759.909521794603
 30
0.0
 11
5532.0281391807
 21
1795.623807508889
 31
0.0
  0
LINE
  5
DC7F
330
D030
100
AcDbEntity
  8
TEXT
440
 16777216
100
AcDbLine
 10
5532.0281391807
 20
1332.70095036636
 30
0.0
 11
5532.0281391807
 21
1296.986664652075
 31
0.0
  0
SOLID
  5
DC80
330
D030
100
AcDbEntity
  8
TEXT
440
 16777216
100
AcDbTrace
 10
5526.075758228319
 20
1759.909521794603
 30
0.0
 11
5537.980520133081
 21
1759.909521794603
 31
0.0
 12
5532.0281391807
 22
1724.195236080318
 32
0.0
 13
5532.0281391807
 23
1724.195236080318
 33
0.0
  0
SOLID
  5
DC81
330
D030
100
AcDbEntity
  8
TEXT
440
 16777216
100
AcDbTrace
 10
5526.075758228319
 20
1332.70095036636
 30
0.0
 11
5537.980520133081
 21
1332.70095036636
 31
0.0
 12
5532.0281391807
 22
1368.415236080646
 32
0.0
 13
5532.0281391807
 23
1368.415236080646
 33
0.0
  0
MTEXT
  5
DC82
330
D030
100
AcDbEntity
  8
TEXT
440
 16777216
100
AcDbMText
 10
5509.350176257966
 20
1382.40546653098
 30
0.0
 40
43.54285853249685
 41
0.0
 71
     1
 72
     1
  1
\A1;356{ SPIGOT}
  7
Note Text
 11
0.0000000000000001
 21
1.0
 31
0.0
 73
     1
 44
1.0
  0
POINT
  5
DC83
330
D030
100
AcDbEntity
  8
Defpoints
 62
     0
440
 16777216
100
AcDbPoint
 10
5493.93537364258
 20
1724.195236080318
 30
0.0
  0
POINT
  5
DC84
330
D030
100
AcDbEntity
  8
Defpoints
 62
     0
440
 16777216
100
AcDbPoint
 10
5493.885373642716
 20
1368.415236080646
 30
0.0
  0
POINT
  5
DC85
330
D030
100
AcDbEntity
  8
Defpoints
 62
     0
440
 16777216
100
AcDbPoint
 10
5532.0281391807
 20
1368.415236080646
 30
0.0
  0
ENDBLK
  5
D032
330
D030
100
AcDbEntity
  8
0
100
AcDbBlockEnd
  0
BLOCK
  5
D04B
330
D04A
100
AcDbEntity
  8
0
100
AcDbBlockBegin
  2
*D44
 70
     1
 10
0.0
 20
0.0
 30
0.0
  3
*D44
  1

  0
LINE
  5
DBF0
330
D04A
100
AcDbEntity
  8
TEXT
440
 16777216
100
AcDbLine
 10
4367.184201410623
 20
2646.214191231706
 30
0.0
 11
4466.3179408749
 21
2646.214191231706
 31
0.0
  0
LINE
  5
DBF1
330
D04A
100
AcDbEntity
  8
TEXT
440
 16777216
100
AcDbLine
 10
4375.840391499234
 20
2749.695038032462
 30
0.0
 11
4466.3179408749
 21
2749.695038032462
 31
0.0
  0
LINE
  5
DBF2
330
D04A
100
AcDbEntity
  8
TEXT
440
 16777216
100
AcDbLine
 10
4420.960798017758
 20
2713.980752318176
 30
0.0
 11
4420.960798017758
 21
2681.928476945992
 31
0.0
  0
LINE
  5
DBF3
330
D04A
100
AcDbEntity
  8
TEXT
440
 16777216
100
AcDbLine
 10
4420.960798017758
 20
2646.214191231706
 30
0.0
 11
4420.960798017758
 21
2610.49990551742
 31
0.0
  0
SOLID
  5
DBF4
330
D04A
100
AcDbEntity
  8
TEXT
440
 16777216
100
AcDbTrace
 10
4415.008417065377
 20
2713.980752318176
 30
0.0
 11
4426.913178970139
 21
2713.980752318176
 31
0.0
 12
4420.960798017758
 22
2749.695038032462
 32
0.0
 13
4420.960798017758
 23
2749.695038032462
 33
0.0
  0
SOLID
  5
DBF5
330
D04A
100
AcDbEntity
  8
TEXT
440
 16777216
100
AcDbTrace
 10
4415.008417065377
 20
2681.928476945992
 30
0.0
 11
4426.913178970139
 21
2681.928476945992
 31
0.0
 12
4420.960798017758
 22
2646.214191231706
 32
0.0
 13
4420.960798017758
 23
2646.214191231706
 33
0.0
  0
MTEXT
  5
DBF6
330
D04A
100
AcDbEntity
  8
TEXT
440
 16777216
100
AcDbMText
 10
4398.282835095023
 20
2510.991354303838
 30
0.0
 40
43.54285853249685
 41
0.0
 71
     1
 72
     1
  1
\A1;103
  7
Note Text
 11
0.0000000000000001
 21
1.0
 31
0.0
 73
     1
 44
1.0
  0
POINT
  5
DBF7
330
D04A
100
AcDbEntity
  8
Defpoints
 62
     0
440
 16777216
100
AcDbPoint
 10
4344.324201410624
 20
2646.214191231706
 30
0.0
  0
POINT
  5
DBF8
330
D04A
100
AcDbEntity
  8
Defpoints
 62
     0
440
 16777216
100
AcDbPoint
 10
4352.980391499233
 20
2749.695038032462
 30
0.0
  0
POINT
  5
DBF9
330
D04A
100
AcDbEntity
  8
Defpoints
 62
     0
440
 16777216
100
AcDbPoint
 10
4420.960798017758
 20
2749.695038032462
 30
0.0
  0
ENDBLK
  5
D04C
330
D04A
100
AcDbEntity
  8
0
100
AcDbBlockEnd
  0
BLOCK
  5
D058
330
D057
100
AcDbEntity
  8
0
100
AcDbBlockBegin
  2
*D45
 70
     1
 10
0.0
 20
0.0
 30
0.0
  3
*D45
  1

  0
LINE
  5
DBC8
330
D057
100
AcDbEntity
  8
TEXT
440
 16777216
100
AcDbLine
 10
4223.580391499324
 20
2953.029862332435
 30
0.0
 11
4223.580391499324
 21
3016.065971471483
 31
0.0
  0
LINE
  5
DBC9
330
D057
100
AcDbEntity
  8
TEXT
440
 16777216
100
AcDbLine
 10
2301.180749599383
 20
2953.029862332452
 30
0.0
 11
2301.180749599383
 21
3016.065971471483
 31
0.0
  0
LINE
  5
DBCA
330
D057
100
AcDbEntity
  8
TEXT
440
 16777216
100
AcDbLine
 10
4187.866105785039
 20
2970.70882861434
 30
0.0
 11
3448.287627830271
 21
2970.70882861434
 31
0.0
  0
LINE
  5
DBCB
330
D057
100
AcDbEntity
  8
TEXT
440
 16777216
100
AcDbLine
 10
2336.895035313669
 20
2970.70882861434
 30
0.0
 11
3076.473513268437
 21
2970.70882861434
 31
0.0
  0
SOLID
  5
DBCC
330
D057
100
AcDbEntity
  8
TEXT
440
 16777216
100
AcDbTrace
 10
4187.866105785039
 20
2976.661209566721
 30
0.0
 11
4187.866105785039
 21
2964.756447661959
 31
0.0
 12
4223.580391499324
 22
2970.70882861434
 32
0.0
 13
4223.580391499324
 23
2970.70882861434
 33
0.0
  0
SOLID
  5
DBCD
330
D057
100
AcDbEntity
  8
TEXT
440
 16777216
100
AcDbTrace
 10
2336.895035313669
 20
2976.661209566721
 30
0.0
 11
2336.895035313669
 21
2964.756447661959
 31
0.0
 12
2301.180749599383
 22
2970.70882861434
 32
0.0
 13
2301.180749599383
 23
2970.70882861434
 33
0.0
  0
MTEXT
  5
DBCE
330
D057
100
AcDbEntity
  8
TEXT
440
 16777216
100
AcDbMText
 10
3087.902084697009
 20
2993.386791537075
 30
0.0
 40
43.54285853249685
 41
0.0
 71
     1
 72
     1
  1
\A1;1922{ SPIGOT}
  7
Note Text
 73
     1
 44
1.0
  0
POINT
  5
DBCF
330
D057
100
AcDbEntity
  8
Defpoints
 62
     0
440
 16777216
100
AcDbPoint
 10
4223.580391499324
 20
2930.169862332435
 30
0.0
  0
POINT
  5
DBD0
330
D057
100
AcDbEntity
  8
Defpoints
 62
     0
440
 16777216
100
AcDbPoint
 10
2301.180749599383
 20
2930.169862332452
 30
0.0
  0
POINT
  5
DBD1
330
D057
100
AcDbEntity
  8
Defpoints
 62
     0
440
 16777216
100
AcDbPoint
 10
2301.180749599383
 20
2970.70882861434
 30
0.0
  0
ENDBLK
  5
D059
330
D057
100
AcDbEntity
  8
0
100
AcDbBlockEnd
  0
BLOCK
  5
D072
330
D071
100
AcDbEntity
  8
0
100
AcDbBlockBegin
  2
*D47
 70
     1
 10
0.0
 20
0.0
 30
0.0
  3
*D47
  1

  0
LINE
  5
DC2C
330
D071
100
AcDbEntity
  8
TEXT
440
 16777216
100
AcDbLine
 10
2213.770391498981
 20
1744.115236080693
 30
0.0
 11
2106.324486685691
 21
1744.115236080693
 31
0.0
  0
LINE
  5
DC2D
330
D071
100
AcDbEntity
  8
TEXT
440
 16777216
100
AcDbLine
 10
2225.67049449888
 20
1321.375236080643
 30
0.0
 11
2106.324486685691
 21
1321.375236080643
 31
0.0
  0
LINE
  5
DC2E
330
D071
100
AcDbEntity
  8
TEXT
440
 16777216
100
AcDbLine
 10
2151.681629542834
 20
1708.400950366407
 30
0.0
 11
2151.681629542834
 21
1653.995973539312
 31
0.0
  0
LINE
  5
DC2F
330
D071
100
AcDbEntity
  8
TEXT
440
 16777216
100
AcDbLine
 10
2151.681629542834
 20
1357.089521794929
 30
0.0
 11
2151.681629542834
 21
1411.494498622006
 31
0.0
  0
SOLID
  5
DC30
330
D071
100
AcDbEntity
  8
TEXT
440
 16777216
100
AcDbTrace
 10
2145.729248590453
 20
1708.400950366407
 30
0.0
 11
2157.634010495215
 21
1708.400950366407
 31
0.0
 12
2151.681629542834
 22
1744.115236080693
 32
0.0
 13
2151.681629542834
 23
1744.115236080693
 33
0.0
  0
SOLID
  5
DC31
330
D071
100
AcDbEntity
  8
TEXT
440
 16777216
100
AcDbTrace
 10
2145.729248590453
 20
1357.089521794929
 30
0.0
 11
2157.634010495215
 21
1357.089521794929
 31
0.0
 12
2151.681629542834
 22
1321.375236080643
 32
0.0
 13
2151.681629542834
 23
1321.375236080643
 33
0.0
  0
MTEXT
  5
DC32
330
D071
100
AcDbEntity
  8
TEXT
440
 16777216
100
AcDbMText
 10
2124.193189636489
 20
1422.923070050577
 30
0.0
 40
43.54285853249685
 41
0.0
 71
     1
 72
     1
  1
\A1;423{ O/D}
  7
Note Text
 11
0.0000000000000001
 21
1.0
 31
0.0
 73
     1
 44
1.0
  0
POINT
  5
DC33
330
D071
100
AcDbEntity
  8
Defpoints
 62
     0
440
 16777216
100
AcDbPoint
 10
2236.630391498982
 20
1744.115236080693
 30
0.0
  0
POINT
  5
DC34
330
D071
100
AcDbEntity
  8
Defpoints
 62
     0
440
 16777216
100
AcDbPoint
 10
2248.53049449888
 20
1321.375236080643
 30
0.0
  0
POINT
  5
DC35
330
D071
100
AcDbEntity
  8
Defpoints
 62
     0
440
 16777216
100
AcDbPoint
 10
2151.681629542834
 20
1321.375236080643
 30
0.0
  0
ENDBLK
  5
D073
330
D071
100
AcDbEntity
  8
0
100
AcDbBlockEnd
  0
BLOCK
  5
D07F
330
D07E
100
AcDbEntity
  8
0
100
AcDbBlockBegin
  2
*D48
 70
     1
 10
0.0
 20
0.0
 30
0.0
  3
*D48
  1

  0
LINE
  5
DC86
330
D07E
100
AcDbEntity
  8
TEXT
440
 16777216
100
AcDbLine
 10
5465.745373642755
 20
1321.375236080245
 30
0.0
 11
5653.549011054031
 21
1321.375236080245
 31
0.0
  0
LINE
  5
DC87
330
D07E
100
AcDbEntity
  8
TEXT
440
 16777216
100
AcDbLine
 10
5516.745373642716
 20
1368.415236080646
 30
0.0
 11
5653.549011054031
 21
1368.415236080646
 31
0.0
  0
LINE
  5
DC88
330
D07E
100
AcDbEntity
  8
TEXT
440
 16777216
100
AcDbLine
 10
5608.191868196887
 20
1404.129521794932
 30
0.0
 11
5608.191868196887
 21
1439.843807509218
 31
0.0
  0
LINE
  5
DC89
330
D07E
100
AcDbEntity
  8
TEXT
440
 16777216
100
AcDbLine
 10
5608.191868196887
 20
1285.660950365959
 30
0.0
 11
5608.191868196887
 21
1249.946664651673
 31
0.0
  0
SOLID
  5
DC8A
330
D07E
100
AcDbEntity
  8
TEXT
440
 16777216
100
AcDbTrace
 10
5602.239487244506
 20
1404.129521794932
 30
0.0
 11
5614.144249149268
 21
1404.129521794932
 31
0.0
 12
5608.191868196887
 22
1368.415236080646
 32
0.0
 13
5608.191868196887
 23
1368.415236080646
 33
0.0
  0
SOLID
  5
DC8B
330
D07E
100
AcDbEntity
  8
TEXT
440
 16777216
100
AcDbTrace
 10
5602.239487244506
 20
1285.660950365959
 30
0.0
 11
5614.144249149268
 21
1285.660950365959
 31
0.0
 12
5608.191868196887
 22
1321.375236080245
 32
0.0
 13
5608.191868196887
 23
1321.375236080245
 33
0.0
  0
MTEXT
  5
DC8C
330
D07E
100
AcDbEntity
  8
TEXT
440
 16777216
100
AcDbMText
 10
5586.420438930638
 20
1176.464402285589
 30
0.0
 40
43.54285853249685
 41
0.0
 71
     1
 72
     1
  1
\A1;47
  7
Note Text
 11
0.0000000000000001
 21
1.0
 31
0.0
 73
     1
 44
1.0
  0
POINT
  5
DC8D
330
D07E
100
AcDbEntity
  8
Defpoints
 62
     0
440
 16777216
100
AcDbPoint
 10
5442.885373642756
 20
1321.375236080245
 30
0.0
  0
POINT
  5
DC8E
330
D07E
100
AcDbEntity
  8
Defpoints
 62
     0
440
 16777216
100
AcDbPoint
 10
5493.885373642716
 20
1368.415236080646
 30
0.0
  0
POINT
  5
DC8F
330
D07E
100
AcDbEntity
  8
Defpoints
 62
     0
440
 16777216
100
AcDbPoint
 10
5608.191868196887
 20
1368.415236080646
 30
0.0
  0
ENDBLK
  5
D080
330
D07E
100
AcDbEntity
  8
0
100
AcDbBlockEnd
  0
BLOCK
  5
D097
330
D096
100
AcDbEntity
  8
0
100
AcDbBlockBegin
  2
*D50
 70
     1
 10
0.0
 20
0.0
 30
0.0
  3
*D50
  1

  0
LINE
  5
DC22
330
D096
100
AcDbEntity
  8
TEXT
440
 16777216
100
AcDbLine
 10
2233.831391510079
 20
2160.747862332441
 30
0.0
 11
2233.831391510079
 21
2024.524728030207
 31
0.0
  0
LINE
  5
DC23
330
D096
100
AcDbEntity
  8
TEXT
440
 16777216
100
AcDbLine
 10
2283.326391510104
 20
2181.247862332419
 30
0.0
 11
2283.326391510104
 21
2024.524728030207
 31
0.0
  0
LINE
  5
DC24
330
D096
100
AcDbEntity
  8
TEXT
440
 16777216
100
AcDbLine
 10
2319.04067722439
 20
2069.88187088735
 30
0.0
 11
2354.754962938676
 21
2069.88187088735
 31
0.0
  0
LINE
  5
DC25
330
D096
100
AcDbEntity
  8
TEXT
440
 16777216
100
AcDbLine
 10
2198.117105795794
 20
2069.88187088735
 30
0.0
 11
2162.402820081508
 21
2069.88187088735
 31
0.0
  0
SOLID
  5
DC26
330
D096
100
AcDbEntity
  8
TEXT
440
 16777216
100
AcDbTrace
 10
2319.04067722439
 20
2075.83425183973
 30
0.0
 11
2319.04067722439
 21
2063.929489934969
 31
0.0
 12
2283.326391510104
 22
2069.88187088735
 32
0.0
 13
2283.326391510104
 23
2069.88187088735
 33
0.0
  0
SOLID
  5
DC27
330
D096
100
AcDbEntity
  8
TEXT
440
 16777216
100
AcDbTrace
 10
2198.117105795794
 20
2075.83425183973
 30
0.0
 11
2198.117105795794
 21
2063.929489934969
 31
0.0
 12
2233.831391510079
 22
2069.88187088735
 32
0.0
 13
2233.831391510079
 23
2069.88187088735
 33
0.0
  0
MTEXT
  5
DC28
330
D096
100
AcDbEntity
  8
TEXT
440
 16777216
100
AcDbMText
 10
2039.061206608701
 20
2092.545212299495
 30
0.0
 40
43.54285853249685
 41
0.0
 71
     1
 72
     1
  1
\A1;49.5
  7
Note Text
 73
     1
 44
1.0
  0
POINT
  5
DC29
330
D096
100
AcDbEntity
  8
Defpoints
 62
     0
440
 16777216
100
AcDbPoint
 10
2233.831391510079
 20
2183.607862332441
 30
0.0
  0
POINT
  5
DC2A
330
D096
100
AcDbEntity
  8
Defpoints
 62
     0
440
 16777216
100
AcDbPoint
 10
2283.326391510104
 20
2204.107862332419
 30
0.0
  0
POINT
  5
DC2B
330
D096
100
AcDbEntity
  8
Defpoints
 62
     0
440
 16777216
100
AcDbPoint
 10
2283.326391510104
 20
2069.88187088735
 30
0.0
  0
ENDBLK
  5
D098
330
D096
100
AcDbEntity
  8
0
100
AcDbBlockEnd
  0
BLOCK
  5
D0A4
330
D0A3
100
AcDbEntity
  8
0
100
AcDbBlockBegin
  2
*D51
 70
     1
 10
0.0
 20
0.0
 30
0.0
  3
*D51
  1

  0
LINE
  5
DBFA
330
D0A3
100
AcDbEntity
  8
TEXT
440
 16777216
100
AcDbLine
 10
4289.270391499309
 20
2160.747862332122
 30
0.0
 11
4289.270391499309
 21
2030.750719475147
 31
0.0
  0
LINE
  5
DBFB
330
D0A3
100
AcDbEntity
  8
TEXT
440
 16777216
100
AcDbLine
 10
4238.826391510101
 20
2181.247862332109
 30
0.0
 11
4238.826391510101
 21
2030.750719475147
 31
0.0
  0
LINE
  5
DBFC
330
D0A3
100
AcDbEntity
  8
TEXT
440
 16777216
100
AcDbLine
 10
4203.112105795816
 20
2076.10786233229
 30
0.0
 11
4167.39782008153
 21
2076.10786233229
 31
0.0
  0
LINE
  5
DBFD
330
D0A3
100
AcDbEntity
  8
TEXT
440
 16777216
100
AcDbLine
 10
4324.984677213595
 20
2076.10786233229
 30
0.0
 11
4360.698962927879
 21
2076.10786233229
 31
0.0
  0
SOLID
  5
DBFE
330
D0A3
100
AcDbEntity
  8
TEXT
440
 16777216
100
AcDbTrace
 10
4203.112105795816
 20
2082.060243284671
 30
0.0
 11
4203.112105795816
 21
2070.155481379909
 31
0.0
 12
4238.826391510101
 22
2076.10786233229
 32
0.0
 13
4238.826391510101
 23
2076.10786233229
 33
0.0
  0
SOLID
  5
DBFF
330
D0A3
100
AcDbEntity
  8
TEXT
440
 16777216
100
AcDbTrace
 10
4324.984677213595
 20
2082.060243284671
 30
0.0
 11
4324.984677213595
 21
2070.155481379909
 31
0.0
 12
4289.270391499309
 22
2076.10786233229
 32
0.0
 13
4289.270391499309
 23
2076.10786233229
 33
0.0
  0
MTEXT
  5
DC00
330
D0A3
100
AcDbEntity
  8
TEXT
440
 16777216
100
AcDbMText
 10
4372.127534356451
 20
2098.771203744436
 30
0.0
 40
43.54285853249685
 41
0.0
 71
     1
 72
     1
  1
\A1;50
  7
Note Text
 73
     1
 44
1.0
  0
POINT
  5
DC01
330
D0A3
100
AcDbEntity
  8
Defpoints
 62
     0
440
 16777216
100
AcDbPoint
 10
4289.270391499309
 20
2183.607862332122
 30
0.0
  0
POINT
  5
DC02
330
D0A3
100
AcDbEntity
  8
Defpoints
 62
     0
440
 16777216
100
AcDbPoint
 10
4238.826391510101
 20
2204.107862332109
 30
0.0
  0
POINT
  5
DC03
330
D0A3
100
AcDbEntity
  8
Defpoints
 62
     0
440
 16777216
100
AcDbPoint
 10
4238.826391510101
 20
2076.10786233229
 30
0.0
  0
ENDBLK
  5
D0A5
330
D0A3
100
AcDbEntity
  8
0
100
AcDbBlockEnd
  0
BLOCK
  5
D0B1
330
D0B0
100
AcDbEntity
  8
0
100
AcDbBlockBegin
  2
*D52
 70
     1
 10
0.0
 20
0.0
 30
0.0
  3
*D52
  1

  0
LINE
  5
DBD2
330
D0B0
100
AcDbEntity
  8
TEXT
440
 16777216
100
AcDbLine
 10
4377.097586674181
 20
2866.36295072611
 30
0.0
 11
4377.097586674181
 21
3228.027789593935
 31
0.0
  0
LINE
  5
DBD3
330
D0B0
100
AcDbEntity
  8
TEXT
440
 16777216
100
AcDbLine
 10
2236.630391499334
 20
2892.729862332433
 30
0.0
 11
2236.630391499334
 21
3228.027789593935
 31
0.0
  0
LINE
  5
DBD4
330
D0B0
100
AcDbEntity
  8
TEXT
440
 16777216
100
AcDbLine
 10
4341.383300959896
 20
3182.670646736792
 30
0.0
 11
3426.594621698502
 21
3182.670646736792
 31
0.0
  0
LINE
  5
DBD5
330
D0B0
100
AcDbEntity
  8
TEXT
440
 16777216
100
AcDbLine
 10
2272.34467721362
 20
3182.670646736792
 30
0.0
 11
3153.417217566562
 21
3182.670646736792
 31
0.0
  0
SOLID
  5
DBD6
330
D0B0
100
AcDbEntity
  8
TEXT
440
 16777216
100
AcDbTrace
 10
4341.383300959896
 20
3188.623027689173
 30
0.0
 11
4341.383300959896
 21
3176.718265784411
 31
0.0
 12
4377.097586674181
 22
3182.670646736792
 32
0.0
 13
4377.097586674181
 23
3182.670646736792
 33
0.0
  0
SOLID
  5
DBD7
330
D0B0
100
AcDbEntity
  8
TEXT
440
 16777216
100
AcDbTrace
 10
2272.34467721362
 20
3188.623027689173
 30
0.0
 11
2272.34467721362
 21
3176.718265784411
 31
0.0
 12
2236.630391499334
 22
3182.670646736792
 32
0.0
 13
2236.630391499334
 23
3182.670646736792
 33
0.0
  0
MTEXT
  5
DBD8
330
D0B0
100
AcDbEntity
  8
TEXT
440
 16777216
100
AcDbMText
 10
3164.845788995134
 20
3210.159086643137
 30
0.0
 40
43.54285853249685
 41
0.0
 71
     1
 72
     1
  1
\A1;2140{ O/D}
  7
Note Text
 73
     1
 44
1.0
  0
POINT
  5
DBD9
330
D0B0
100
AcDbEntity
  8
Defpoints
 62
     0
440
 16777216
100
AcDbPoint
 10
4377.097586674181
 20
2843.50295072611
 30
0.0
  0
POINT
  5
DBDA
330
D0B0
100
AcDbEntity
  8
Defpoints
 62
     0
440
 16777216
100
AcDbPoint
 10
2236.630391499334
 20
2869.869862332432
 30
0.0
  0
POINT
  5
DBDB
330
D0B0
100
AcDbEntity
  8
Defpoints
 62
     0
440
 16777216
100
AcDbPoint
 10
2236.630391499334
 20
3182.670646736792
 30
0.0
  0
ENDBLK
  5
D0B2
330
D0B0
100
AcDbEntity
  8
0
100
AcDbBlockEnd
  0
BLOCK
  5
D0BE
330
D0BD
100
AcDbEntity
  8
0
100
AcDbBlockBegin
  2
*D53
 70
     1
 10
0.0
 20
0.0
 30
0.0
  3
*D53
  1

  0
LINE
  5
DBE6
330
D0BD
100
AcDbEntity
  8
TEXT
440
 16777216
100
AcDbLine
 10
4375.840391499234
 20
2749.695038032462
 30
0.0
 11
4517.972850450489
 21
2749.695038032462
 31
0.0
  0
LINE
  5
DBE7
330
D0BD
100
AcDbEntity
  8
TEXT
440
 16777216
100
AcDbLine
 10
4399.95758667418
 20
2842.50295072611
 30
0.0
 11
4517.972850450489
 21
2842.50295072611
 31
0.0
  0
LINE
  5
DBE8
330
D0BD
100
AcDbEntity
  8
TEXT
440
 16777216
100
AcDbLine
 10
4472.615707593347
 20
2713.980752318176
 30
0.0
 11
4472.615707593347
 21
2678.26646660389
 31
0.0
  0
LINE
  5
DBE9
330
D0BD
100
AcDbEntity
  8
TEXT
440
 16777216
100
AcDbLine
 10
4472.615707593347
 20
2878.217236440395
 30
0.0
 11
4472.615707593347
 21
2913.931522154681
 31
0.0
  0
SOLID
  5
DBEA
330
D0BD
100
AcDbEntity
  8
TEXT
440
 16777216
100
AcDbTrace
 10
4466.663326640966
 20
2713.980752318176
 30
0.0
 11
4478.568088545727
 21
2713.980752318176
 31
0.0
 12
4472.615707593347
 22
2749.695038032462
 32
0.0
 13
4472.615707593347
 23
2749.695038032462
 33
0.0
  0
SOLID
  5
DBEB
330
D0BD
100
AcDbEntity
  8
TEXT
440
 16777216
100
AcDbTrace
 10
4466.663326640966
 20
2878.217236440395
 30
0.0
 11
4478.568088545727
 21
2878.217236440395
 31
0.0
 12
4472.615707593347
 22
2842.50295072611
 32
0.0
 13
4472.615707593347
 23
2842.50295072611
 33
0.0
  0
MTEXT
  5
DBEC
330
D0BD
100
AcDbEntity
  8
TEXT
440
 16777216
100
AcDbMText
 10
4449.937744670612
 20
2925.360093583254
 30
0.0
 40
43.54285853249685
 41
0.0
 71
     1
 72
     1
  1
\A1;93
  7
Note Text
 11
0.0000000000000001
 21
1.0
 31
0.0
 73
     1
 44
1.0
  0
POINT
  5
DBED
330
D0BD
100
AcDbEntity
  8
Defpoints
 62
     0
440
 16777216
100
AcDbPoint
 10
4352.980391499233
 20
2749.695038032462
 30
0.0
  0
POINT
  5
DBEE
330
D0BD
100
AcDbEntity
  8
Defpoints
 62
     0
440
 16777216
100
AcDbPoint
 10
4377.097586674181
 20
2842.50295072611
 30
0.0
  0
POINT
  5
DBEF
330
D0BD
100
AcDbEntity
  8
Defpoints
 62
     0
440
 16777216
100
AcDbPoint
 10
4472.615707593347
 20
2842.50295072611
 30
0.0
  0
ENDBLK
  5
D0BF
330
D0BD
100
AcDbEntity
  8
0
100
AcDbBlockEnd
  0
BLOCK
  5
D0CB
330
D0CA
100
AcDbEntity
  8
0
100
AcDbBlockBegin
  2
*D54
 70
     1
 10
0.0
 20
0.0
 30
0.0
  3
*D54
  1

  0
LINE
  5
DBDC
330
D0CA
100
AcDbEntity
  8
TEXT
440
 16777216
100
AcDbLine
 10
4246.440391499325
 20
2930.169862332435
 30
0.0
 11
4462.404629275241
 21
2930.169862332435
 31
0.0
  0
LINE
  5
DBDD
330
D0CA
100
AcDbEntity
  8
TEXT
440
 16777216
100
AcDbLine
 10
4399.95758667418
 20
2842.50295072611
 30
0.0
 11
4462.404629275241
 21
2842.50295072611
 31
0.0
  0
LINE
  5
DBDE
330
D0CA
100
AcDbEntity
  8
TEXT
440
 16777216
100
AcDbLine
 10
4417.047486418097
 20
2806.788665011824
 30
0.0
 11
4417.047486418097
 21
2771.074379297538
 31
0.0
  0
LINE
  5
DBDF
330
D0CA
100
AcDbEntity
  8
TEXT
440
 16777216
100
AcDbLine
 10
4417.047486418097
 20
2965.88414804672
 30
0.0
 11
4417.047486418097
 21
3001.598433761007
 31
0.0
  0
SOLID
  5
DBE0
330
D0CA
100
AcDbEntity
  8
TEXT
440
 16777216
100
AcDbTrace
 10
4411.095105465717
 20
2806.788665011824
 30
0.0
 11
4422.999867370478
 21
2806.788665011824
 31
0.0
 12
4417.047486418097
 22
2842.50295072611
 32
0.0
 13
4417.047486418097
 23
2842.50295072611
 33
0.0
  0
SOLID
  5
DBE1
330
D0CA
100
AcDbEntity
  8
TEXT
440
 16777216
100
AcDbTrace
 10
4411.095105465717
 20
2965.88414804672
 30
0.0
 11
4422.999867370478
 21
2965.88414804672
 31
0.0
 12
4417.047486418097
 22
2930.169862332435
 32
0.0
 13
4417.047486418097
 23
2930.169862332435
 33
0.0
  0
MTEXT
  5
DBE2
330
D0CA
100
AcDbEntity
  8
TEXT
440
 16777216
100
AcDbMText
 10
4394.281794431832
 20
3013.027005189578
 30
0.0
 40
43.54285853249685
 41
0.0
 71
     1
 72
     1
  1
\A1;88
  7
Note Text
 11
0.0000000000000001
 21
1.0
 31
0.0
 73
     1
 44
1.0
  0
POINT
  5
DBE3
330
D0CA
100
AcDbEntity
  8
Defpoints
 62
     0
440
 16777216
100
AcDbPoint
 10
4223.580391499324
 20
2930.169862332435
 30
0.0
  0
POINT
  5
DBE4
330
D0CA
100
AcDbEntity
  8
Defpoints
 62
     0
440
 16777216
100
AcDbPoint
 10
4377.097586674181
 20
2842.50295072611
 30
0.0
  0
POINT
  5
DBE5
330
D0CA
100
AcDbEntity
  8
Defpoints
 62
     0
440
 16777216
100
AcDbPoint
 10
4417.047486418097
 20
2842.50295072611
 30
0.0
  0
ENDBLK
  5
D0CC
330
D0CA
100
AcDbEntity
  8
0
100
AcDbBlockEnd
  0
BLOCK
  5
D0D8
330
D0D7
100
AcDbEntity
  8
0
100
AcDbBlockBegin
  2
*D55
 70
     1
 10
0.0
 20
0.0
 30
0.0
  3
*D55
  1

  0
LINE
  5
DC18
330
D0D7
100
AcDbEntity
  8
TEXT
440
 16777216
100
AcDbLine
 10
2228.97139151008
 20
2207.107862332439
 30
0.0
 11
2029.773748642186
 21
2207.107862332439
 31
0.0
  0
LINE
  5
DC19
330
D0D7
100
AcDbEntity
  8
TEXT
440
 16777216
100
AcDbLine
 10
2196.270391499327
 20
2855.869862332442
 30
0.0
 11
2029.773748642186
 21
2855.869862332442
 31
0.0
  0
LINE
  5
DC1A
330
D0D7
100
AcDbEntity
  8
TEXT
440
 16777216
100
AcDbLine
 10
2075.130891499329
 20
2242.822148046725
 30
0.0
 11
2075.130891499329
 21
2820.155576618156
 31
0.0
  0
LINE
  5
DC1B
330
D0D7
100
AcDbEntity
  8
TEXT
440
 16777216
100
AcDbLine
 10
2075.130891499329
 20
2855.869862332442
 30
0.0
 11
2075.130891499329
 21
2891.584148046728
 31
0.0
  0
SOLID
  5
DC1C
330
D0D7
100
AcDbEntity
  8
TEXT
440
 16777216
100
AcDbTrace
 10
2069.178510546948
 20
2242.822148046725
 30
0.0
 11
2081.08327245171
 21
2242.822148046725
 31
0.0
 12
2075.130891499329
 22
2207.107862332439
 32
0.0
 13
2075.130891499329
 23
2207.107862332439
 33
0.0
  0
SOLID
  5
DC1D
330
D0D7
100
AcDbEntity
  8
TEXT
440
 16777216
100
AcDbTrace
 10
2069.178510546948
 20
2820.155576618156
 30
0.0
 11
2081.08327245171
 21
2820.155576618156
 31
0.0
 12
2075.130891499329
 22
2855.869862332442
 32
0.0
 13
2075.130891499329
 23
2855.869862332442
 33
0.0
  0
MTEXT
  5
DC1E
330
D0D7
100
AcDbEntity
  8
TEXT
440
 16777216
100
AcDbMText
 10
2042.110646753675
 20
2903.0127194753
 30
0.0
 40
43.54285853249685
 41
0.0
 71
     1
 72
     1
  1
\A1;{(}649{ OPTIONAL\P SPRING MTG CTRS)}
  7
Note Text
 11
0.0000000000000001
 21
1.0
 31
0.0
 73
     1
 44
1.0
  0
POINT
  5
DC1F
330
D0D7
100
AcDbEntity
  8
Defpoints
 62
     0
440
 16777216
100
AcDbPoint
 10
2251.83139151008
 20
2207.107862332439
 30
0.0
  0
POINT
  5
DC20
330
D0D7
100
AcDbEntity
  8
Defpoints
 62
     0
440
 16777216
100
AcDbPoint
 10
2219.130391499327
 20
2855.869862332442
 30
0.0
  0
POINT
  5
DC21
330
D0D7
100
AcDbEntity
  8
Defpoints
 62
     0
440
 16777216
100
AcDbPoint
 10
2075.130891499329
 20
2855.869862332442
 30
0.0
  0
ENDBLK
  5
D0D9
330
D0D7
100
AcDbEntity
  8
0
100
AcDbBlockEnd
  0
BLOCK
  5
D0E5
330
D0E4
100
AcDbEntity
  8
0
100
AcDbBlockBegin
  2
*D56
 70
     1
 10
0.0
 20
0.0
 30
0.0
  3
*D56
  1

  0
LINE
  5
DC04
330
D0E4
100
AcDbEntity
  8
TEXT
440
 16777216
100
AcDbLine
 10
2226.265391499334
 20
2855.869862332433
 30
0.0
 11
2139.012621141621
 21
2855.869862332433
 31
0.0
  0
LINE
  5
DC05
330
D0E4
100
AcDbEntity
  8
TEXT
440
 16777216
100
AcDbLine
 10
2258.966391510105
 20
2210.107862332419
 30
0.0
 11
2139.012621141621
 21
2210.107862332419
 31
0.0
  0
LINE
  5
DC06
330
D0E4
100
AcDbEntity
  8
TEXT
440
 16777216
100
AcDbLine
 10
2184.369763998764
 20
2820.155576618147
 30
0.0
 11
2184.369763998764
 21
2722.562629686218
 31
0.0
  0
LINE
  5
DC07
330
D0E4
100
AcDbEntity
  8
TEXT
440
 16777216
100
AcDbLine
 10
2184.369763998764
 20
2245.822148046705
 30
0.0
 11
2184.369763998764
 21
2305.597290427154
 31
0.0
  0
SOLID
  5
DC08
330
D0E4
100
AcDbEntity
  8
TEXT
440
 16777216
100
AcDbTrace
 10
2178.417383046383
 20
2820.155576618147
 30
0.0
 11
2190.322144951144
 21
2820.155576618147
 31
0.0
 12
2184.369763998764
 22
2855.869862332433
 32
0.0
 13
2184.369763998764
 23
2855.869862332433
 33
0.0
  0
SOLID
  5
DC09
330
D0E4
100
AcDbEntity
  8
TEXT
440
 16777216
100
AcDbTrace
 10
2178.417383046383
 20
2245.822148046705
 30
0.0
 11
2190.322144951144
 21
2245.822148046705
 31
0.0
 12
2184.369763998764
 22
2210.107862332419
 32
0.0
 13
2184.369763998764
 23
2210.107862332419
 33
0.0
  0
MTEXT
  5
DC0A
330
D0E4
100
AcDbEntity
  8
TEXT
440
 16777216
100
AcDbMText
 10
2161.735665607794
 20
2317.025861855726
 30
0.0
 40
43.54285853249685
 41
0.0
 71
     1
 72
     1
  1
\A1;646{ MTG CTRS}
  7
Note Text
 11
0.0000000000000001
 21
1.0
 31
0.0
 73
     1
 44
1.0
  0
POINT
  5
DC0B
330
D0E4
100
AcDbEntity
  8
Defpoints
 62
     0
440
 16777216
100
AcDbPoint
 10
2249.125391499334
 20
2855.869862332433
 30
0.0
  0
POINT
  5
DC0C
330
D0E4
100
AcDbEntity
  8
Defpoints
 62
     0
440
 16777216
100
AcDbPoint
 10
2281.826391510105
 20
2210.107862332419
 30
0.0
  0
POINT
  5
DC0D
330
D0E4
100
AcDbEntity
  8
Defpoints
 62
     0
440
 16777216
100
AcDbPoint
 10
2184.369763998764
 20
2210.107862332419
 30
0.0
  0
ENDBLK
  5
D0E6
330
D0E4
100
AcDbEntity
  8
0
100
AcDbBlockEnd
  0
BLOCK
  5
D0F2
330
D0F1
100
AcDbEntity
  8
0
100
AcDbBlockBegin
  2
*D57
 70
     1
 10
0.0
 20
0.0
 30
0.0
  3
*D57
  1

  0
LINE
  5
DC0E
330
D0F1
100
AcDbEntity
  8
TEXT
440
 16777216
100
AcDbLine
 10
2278.320749599384
 20
2930.169862332452
 30
0.0
 11
2083.49971012618
 21
2930.169862332452
 31
0.0
  0
LINE
  5
DC0F
330
D0F1
100
AcDbEntity
  8
TEXT
440
 16777216
100
AcDbLine
 10
2395.69639151006
 20
2144.371862332415
 30
0.0
 11
2083.49971012618
 21
2144.371862332415
 31
0.0
  0
LINE
  5
DC10
330
D0F1
100
AcDbEntity
  8
TEXT
440
 16777216
100
AcDbLine
 10
2128.856852983322
 20
2894.455576618166
 30
0.0
 11
2128.856852983322
 21
2658.458930666375
 31
0.0
  0
LINE
  5
DC11
330
D0F1
100
AcDbEntity
  8
TEXT
440
 16777216
100
AcDbLine
 10
2128.856852983322
 20
2180.086148046701
 30
0.0
 11
2128.856852983322
 21
2417.682793998509
 31
0.0
  0
SOLID
  5
DC12
330
D0F1
100
AcDbEntity
  8
TEXT
440
 16777216
100
AcDbTrace
 10
2122.904472030942
 20
2894.455576618166
 30
0.0
 11
2134.809233935703
 21
2894.455576618166
 31
0.0
 12
2128.856852983322
 22
2930.169862332452
 32
0.0
 13
2128.856852983322
 23
2930.169862332452
 33
0.0
  0
SOLID
  5
DC13
330
D0F1
100
AcDbEntity
  8
TEXT
440
 16777216
100
AcDbTrace
 10
2122.904472030942
 20
2180.086148046701
 30
0.0
 11
2134.809233935703
 21
2180.086148046701
 31
0.0
 12
2128.856852983322
 22
2144.371862332415
 32
0.0
 13
2128.856852983322
 23
2144.371862332415
 33
0.0
  0
MTEXT
  5
DC14
330
D0F1
100
AcDbEntity
  8
TEXT
440
 16777216
100
AcDbMText
 10
2101.368413076977
 20
2429.11136542708
 30
0.0
 40
43.54285853249685
 41
0.0
 71
     1
 72
     1
  1
\A1;786{ O/D}
  7
Note Text
 11
0.0000000000000001
 21
1.0
 31
0.0
 73
     1
 44
1.0
  0
POINT
  5
DC15
330
D0F1
100
AcDbEntity
  8
Defpoints
 62
     0
440
 16777216
100
AcDbPoint
 10
2301.180749599383
 20
2930.169862332452
 30
0.0
  0
POINT
  5
DC16
330
D0F1
100
AcDbEntity
  8
Defpoints
 62
     0
440
 16777216
100
AcDbPoint
 10
2418.55639151006
 20
2144.371862332415
 30
0.0
  0
POINT
  5
DC17
330
D0F1
100
AcDbEntity
  8
Defpoints
 62
     0
440
 16777216
100
AcDbPoint
 10
2128.856852983322
 20
2144.371862332415
 30
0.0
  0
ENDBLK
  5
D0F3
330
D0F1
100
AcDbEntity
  8
0
100
AcDbBlockEnd
  0
ENDSEC
  0
SECTION
  2
ENTITIES
  0
TEXT
  5
F78
330
1ABC
100
AcDbEntity
  8
TEXT
100
AcDbText
 10
4351.071428571429
 20
407.0628889743566
 30
0.0
 40
75.0
  1
temperzone ISD 280KY
  7
TITLE5
 72
     1
 11
5010.0
 21
407.0628889743566
 31
0.0
100
AcDbText
  0
TEXT
  5
F79
330
1ABC
100
AcDbEntity
  8
TEXT
100
AcDbText
 10
5167.207040051012
 20
106.9986799601034
 30
0.0
 40
40.49999999999999
  1
ISD 280KY
 41
1.23030303030303
  7
TITLE3
 72
     5
 11
5558.707040051012
 21
106.9986799601034
 31
0.0
100
AcDbText
  0
INSERT
  5
FCE
330
1ABC
100
AcDbEntity
  8
MTG-FEET
100
AcDbBlockReference
  2
LINES
 10
637.4231943994607
 20
2246.72940050912
 30
0.0
  0
TEXT
  5
FDF
330
1ABC
100
AcDbEntity
  8
TEXT
100
AcDbText
 10
4445.57376917185
 20
165.0
 30
0.0
 40
45.0
  1
12/09/12
 41
0.746666666666661
  7
TITLE3
 72
     5
 11
4685.573769171848
 21
165.0
 31
0.0
100
AcDbText
  0
TEXT
  5
FE0
330
1ABC
100
AcDbEntity
  8
OVERLAY-A3
100
AcDbText
 10
4272.345334441874
 20
166.2468207901514
 30
0.0
 40
36.0
  1
Date
  7
SIMPLEX
100
AcDbText
  0
TEXT
  5
FE1
330
1ABC
100
AcDbEntity
  8
OVERLAY-A3
100
AcDbText
 10
5619.166788560402
 20
194.2549530351168
 30
0.0
 40
36.0
  1
Revision
 41
0.7812095035934883
  7
SIMPLEX
 72
     5
 11
5777.194311001599
 21
194.2549530351168
 31
0.0
100
AcDbText
  0
LINE
  5
FE2
330
1ABC
100
AcDbEntity
  8
OVERLAY-A3
100
AcDbLine
 10
5601.737024985239
 20
31.2637392724757
 30
0.0
 11
5601.737024985239
 21
252.40298356282
 31
0.0
  0
LINE
  5
FE3
330
1ABC
100
AcDbEntity
  8
OVERLAY-A3
100
AcDbLine
 10
4229.027294185723
 20
505.8266282468323
 30
0.0
 11
4229.027294185723
 21
31.2637392724757
 31
0.0
  0
LINE
  5
FE4
330
1ABC
100
AcDbEntity
  8
OVERLAY-A3
100
AcDbLine
 10
5125.370517019641
 20
31.2637392724757
 30
0.0
 11
5125.370517019641
 21
252.40298356282
 31
0.0
  0
LINE
  5
FE5
330
1ABC
100
AcDbEntity
  8
OVERLAY-A3
100
AcDbLine
 10
5125.370517019639
 20
139.9688989041955
 30
0.0
 11
4229.027294185723
 21
139.9688989041955
 31
0.0
  0
LINE
  5
FE6
330
1ABC
100
AcDbEntity
  8
OVERLAY-A3
100
AcDbLine
 10
5792.363197856764
 20
252.40298356282
 30
0.0
 11
4229.027294185723
 21
252.40298356282
 31
0.0
  0
LINE
  5
FE7
330
1ABC
100
AcDbEntity
  8
OVERLAY-A3
100
AcDbLine
 10
4229.027294185723
 20
31.2637392724757
 30
0.0
 11
5791.916937089236
 21
31.2637392724757
 31
0.0
  0
LINE
  5
FE8
330
1ABC
100
AcDbEntity
  8
OVERLAY-A3
100
AcDbLine
 10
5791.916937089236
 20
31.2637392724757
 30
0.0
 11
5791.916937089236
 21
505.8266282468323
 31
0.0
  0
LINE
  5
FE9
330
1ABC
100
AcDbEntity
  8
OVERLAY-A3
100
AcDbLine
 10
5791.916937089236
 20
505.8266282468323
 30
0.0
 11
4229.027294185723
 21
505.8266282468323
 31
0.0
  0
TEXT
  5
FEA
330
1ABC
100
AcDbEntity
  8
OVERLAY-A3
100
AcDbText
 10
4266.724828654663
 20
71.88373209803654
 30
0.0
 40
30.0
  1
Scale
 41
1.370174796566003
  7
SIMPLEX
 72
     5
 11
4417.444056276923
 21
71.88373209803654
 31
0.0
100
AcDbText
  0
TEXT
  5
FEB
330
1ABC
100
AcDbEntity
  8
OVERLAY-A3
100
AcDbText
 10
5212.288685401195
 20
193.3401472600643
 30
0.0
 40
30.0
  1
Drawing No.
  7
SIMPLEX
 72
     2
 11
5473.717256829766
 21
193.3401472600643
 31
0.0
100
AcDbText
  0
LINE
  5
FEC
330
1ABC
100
AcDbEntity
  8
OVERLAY-A3
100
AcDbLine
 10
1671.499909257496
 20
0.0
 30
0.0
 11
5835.0
 21
0.0
 31
0.0
  0
LINE
  5
FED
330
1ABC
100
AcDbEntity
  8
OVERLAY-A3
100
AcDbLine
 10
5835.0
 20
0.0
 30
0.0
 11
5835.0
 21
3694.097671741172
 31
0.0
  0
LINE
  5
FEE
330
1ABC
100
AcDbEntity
  8
OVERLAY-A3
100
AcDbLine
 10
5835.0
 20
3694.097671741172
 30
0.0
 11
1671.499909257496
 21
3694.097671741173
 31
0.0
  0
LINE
  5
FEF
330
1ABC
100
AcDbEntity
  8
OVERLAY-A3
100
AcDbLine
 10
1671.499909257496
 20
3694.097671741173
 30
0.0
 11
1671.499909257496
 21
0.0
 31
0.0
  0
TEXT
  5
FF0
330
1ABC
100
AcDbEntity
  8
TEXT
100
AcDbText
 10
4499.14330545496
 20
74.21005702335694
 30
0.0
 40
45.0
  1
1:20
  7
TITLE3
100
AcDbText
  0
TEXT
  5
10A0
330
1ABC
100
AcDbEntity
  8
TEXT
100
AcDbText
 10
4984.080840655504
 20
561.8967023519608
 30
0.0
 40
33.6
  1
available on request
  7
TITLE3
100
AcDbText
  0
TEXT
  5
10A1
330
1ABC
100
AcDbEntity
  8
TEXT
100
AcDbText
 10
4984.080840655504
 20
619.4967023519607
 30
0.0
 40
33.6
  1
Certified dimensions
  7
TITLE3
100
AcDbText
  0
TEXT
  5
10A2
330
1ABC
100
AcDbEntity
  8
TEXT
100
AcDbText
 10
4984.080840655504
 20
677.0967023519609
 30
0.0
 40
33.6
  1
without notice or obligation.
  7
TITLE3
100
AcDbText
  0
TEXT
  5
10A3
330
1ABC
100
AcDbEntity
  8
TEXT
100
AcDbText
 10
4984.080840655504
 20
734.6967023519606
 30
0.0
 40
33.6
  1
specifications at any time
  7
TITLE3
100
AcDbText
  0
TEXT
  5
10A4
330
1ABC
100
AcDbEntity
  8
TEXT
100
AcDbText
 10
4984.080840655504
 20
792.2967023519608
 30
0.0
 40
33.6
  1
the right to change 
  7
TITLE3
100
AcDbText
  0
TEXT
  5
10A5
330
1ABC
100
AcDbEntity
  8
TEXT
100
AcDbText
 10
4984.080840655504
 20
907.4967023519606
 30
0.0
 40
33.6
  1
NOTE
  7
TITLE3
100
AcDbText
  0
TEXT
  5
10A6
330
1ABC
100
AcDbEntity
  8
TEXT
100
AcDbText
 10
4984.080840655504
 20
849.8967023519607
 30
0.0
 40
33.6
  1
The manufacturer reserves
  7
TITLE3
100
AcDbText
  0
INSERT
  5
A2A3
330
1ABC
100
AcDbEntity
  8
Visible
100
AcDbBlockReference
  2
AIR FLOW ARROW
 10
3193.151507377672
 20
3298.852236965945
 30
0.0
 41
9.0
 42
9.0
 43
9.0
  0
INSERT
  5
A2A4
330
1ABC
100
AcDbEntity
  8
Visible
100
AcDbBlockReference
  2
AIR FLOW ARROW
 10
4581.929812476231
 20
1447.631300697762
 30
0.0
 41
9.0
 42
9.0
 43
9.0
 50
270.0
  0
INSERT
  5
A2A5
330
1ABC
100
AcDbEntity
  8
Visible
100
AcDbBlockReference
  2
AIR FLOW ARROW
 10
5615.627979582554
 20
1493.494475293968
 30
0.0
 41
9.0
 42
9.0
 43
9.0
 50
270.0
  0
LINE
  5
A4F6
330
1ABC
100
AcDbEntity
  8
Visible
100
AcDbLine
 10
4223.271391510155
 20
2553.4638623321
 30
0.0
 11
4320.155391499315
 21
2553.463862332088
 31
0.0
  0
LINE
  5
A500
330
1ABC
100
AcDbEntity
  8
Visible
100
AcDbLine
 10
4318.205391499263
 20
2235.682862332116
 30
0.0
 11
4223.271391510105
 21
2235.682862332132
 31
0.0
  0
LINE
  5
A508
330
1ABC
100
AcDbEntity
  8
Visible
100
AcDbLine
 10
4320.155391499262
 20
2235.682862332116
 30
0.0
 11
4320.155391499315
 21
2553.463862332088
 31
0.0
  0
LINE
  5
A509
330
1ABC
100
AcDbEntity
  8
Visible
100
AcDbLine
 10
4318.205391499263
 20
2235.682862332116
 30
0.0
 11
4320.155391499262
 21
2235.682862332116
 31
0.0
  0
LINE
  5
A54B
330
1ABC
100
AcDbEntity
  8
Visible
100
AcDbLine
 10
4374.097586674181
 20
2843.50295072611
 30
0.0
 11
4377.097586674181
 21
2843.50295072611
 31
0.0
  0
LINE
  5
A54C
330
1ABC
100
AcDbEntity
  8
Visible
100
AcDbLine
 10
4374.097586674181
 20
2841.502950726109
 30
0.0
 11
4377.097586674181
 21
2841.502950726109
 31
0.0
  0
LINE
  5
A54D
330
1ABC
100
AcDbEntity
  8
Visible
100
AcDbLine
 10
4377.097586674181
 20
2843.50295072611
 30
0.0
 11
4377.097586674181
 21
2841.502950726109
 31
0.0
  0
LINE
  5
A552
330
1ABC
100
AcDbEntity
  8
Visible
100
AcDbLine
 10
4369.097586674181
 20
2848.85295072611
 30
0.0
 11
4374.097586674181
 21
2843.50295072611
 31
0.0
  0
LINE
  5
A553
330
1ABC
100
AcDbEntity
  8
Visible
100
AcDbLine
 10
4374.097586674181
 20
2841.502950726109
 30
0.0
 11
4369.097586674181
 21
2836.15295072611
 31
0.0
  0
LINE
  5
A555
330
1ABC
100
AcDbEntity
  8
Visible
100
AcDbLine
 10
4367.830391499325
 20
2848.85295072611
 30
0.0
 11
4369.097586674181
 21
2848.85295072611
 31
0.0
  0
LINE
  5
A556
330
1ABC
100
AcDbEntity
  8
Visible
100
AcDbLine
 10
4367.830391499325
 20
2836.15295072611
 30
0.0
 11
4369.097586674181
 21
2836.15295072611
 31
0.0
  0
LINE
  5
A611
330
1ABC
100
AcDbEntity
  8
Visible
100
AcDbLine
 10
4349.83758667418
 20
2821.502950726111
 30
0.0
 11
4349.837586674333
 21
2832.369862332439
 31
0.0
  0
LINE
  5
A612
330
1ABC
100
AcDbEntity
  8
Visible
100
AcDbLine
 10
4349.83758667418
 20
2821.502950726111
 30
0.0
 11
4322.980391499237
 21
2821.502950726111
 31
0.0
  0
CIRCLE
  5
A614
330
1ABC
100
AcDbEntity
  8
Visible
100
AcDbCircle
 10
4349.830391499325
 20
2855.86986233244
 30
0.0
 40
8.500000000000001
  0
LINE
  5
A615
330
1ABC
100
AcDbEntity
  8
Visible
100
AcDbLine
 10
4367.830391499325
 20
2875.86986233244
 30
0.0
 11
4367.830391499325
 21
2835.86986233244
 31
0.0
  0
LINE
  5
A616
330
1ABC
100
AcDbEntity
  8
Visible
100
AcDbLine
 10
4313.830391499329
 20
2834.869862332437
 30
0.0
 11
4305.330391499328
 21
2834.869862332437
 31
0.0
  0
LINE
  5
A617
330
1ABC
100
AcDbEntity
  8
Visible
100
AcDbLine
 10
4304.330391499329
 20
2835.869862332436
 30
0.0
 11
4304.330391499329
 21
2841.869862332435
 31
0.0
  0
LINE
  5
A618
330
1ABC
100
AcDbEntity
  8
Visible
100
AcDbLine
 10
4304.330391499329
 20
2869.869862332434
 30
0.0
 11
4304.330391499329
 21
2875.869862332436
 31
0.0
  0
LINE
  5
A619
330
1ABC
100
AcDbEntity
  8
Visible
100
AcDbLine
 10
4305.330391499328
 20
2876.869862332436
 30
0.0
 11
4313.830391499329
 21
2876.869862332436
 31
0.0
  0
LINE
  5
A61A
330
1ABC
100
AcDbEntity
  8
Visible
100
AcDbLine
 10
4326.830391499326
 20
2834.869862332439
 30
0.0
 11
4313.830391499326
 21
2834.869862332439
 31
0.0
  0
LINE
  5
A61B
330
1ABC
100
AcDbEntity
  8
Visible
100
AcDbLine
 10
4367.830391499325
 20
2834.869862332439
 30
0.0
 11
4326.830391499326
 21
2834.869862332439
 31
0.0
  0
LINE
  5
A61C
330
1ABC
100
AcDbEntity
  8
Visible
100
AcDbLine
 10
4326.830391499326
 20
2876.869862332439
 30
0.0
 11
4367.830391499325
 21
2876.869862332439
 31
0.0
  0
LINE
  5
A61D
330
1ABC
100
AcDbEntity
  8
Visible
100
AcDbLine
 10
4313.830391499326
 20
2876.869862332439
 30
0.0
 11
4326.830391499326
 21
2876.869862332439
 31
0.0
  0
ARC
  5
A61E
330
1ABC
100
AcDbEntity
  8
Visible
100
AcDbCircle
 10
4305.330391499328
 20
2835.869862332436
 30
0.0
 40
3.499999999999998
100
AcDbArc
 50
227.8225813991707
 51
270.0
  0
ARC
  5
A61F
330
1ABC
100
AcDbEntity
  8
Visible
100
AcDbCircle
 10
4305.330391499328
 20
2835.869862332436
 30
0.0
 40
0.9999999999999985
100
AcDbArc
 50
180.0
 51
270.0
  0
ARC
  5
A620
330
1ABC
100
AcDbEntity
  8
Visible
100
AcDbCircle
 10
4305.330391499328
 20
2875.869862332436
 30
0.0
 40
0.9999999999999964
100
AcDbArc
 50
90.0
 51
180.0
  0
ARC
  5
A621
330
1ABC
100
AcDbEntity
  8
Visible
100
AcDbCircle
 10
4305.330391499328
 20
2875.869862332436
 30
0.0
 40
3.500000000000019
100
AcDbArc
 50
90.0
 51
180.0
  0
LINE
  5
A622
330
1ABC
100
AcDbEntity
  8
Visible
100
AcDbLine
 10
4367.830391499325
 20
2834.86986233244
 30
0.0
 11
4367.830391499325
 21
2835.86986233244
 31
0.0
  0
LINE
  5
A623
330
1ABC
100
AcDbEntity
  8
Visible
100
AcDbLine
 10
4367.830391499325
 20
2875.86986233244
 30
0.0
 11
4367.830391499325
 21
2876.86986233244
 31
0.0
  0
LINE
  5
A624
330
1ABC
100
AcDbEntity
  8
Visible
100
AcDbLine
 10
4301.830391499328
 20
2869.869862332434
 30
0.0
 11
4301.830391499328
 21
2875.869862332436
 31
0.0
  0
LINE
  5
A625
330
1ABC
100
AcDbEntity
  8
Visible
100
AcDbLine
 10
4313.830391499329
 20
2832.369862332436
 30
0.0
 11
4305.330391499328
 21
2832.369862332436
 31
0.0
  0
LINE
  5
A628
330
1ABC
100
AcDbEntity
  8
Visible
100
AcDbLine
 10
4313.830391499329
 20
2879.369862332437
 30
0.0
 11
4305.330391499328
 21
2879.369862332437
 31
0.0
  0
LINE
  5
A629
330
1ABC
100
AcDbEntity
  8
Visible
100
AcDbLine
 10
4326.830391499326
 20
2879.36986233244
 30
0.0
 11
4313.830391499326
 21
2879.369862332439
 31
0.0
  0
LINE
  5
A62A
330
1ABC
100
AcDbEntity
  8
Visible
100
AcDbLine
 10
4367.830391499325
 20
2879.36986233244
 30
0.0
 11
4326.830391499326
 21
2879.36986233244
 31
0.0
  0
LINE
  5
A62B
330
1ABC
100
AcDbEntity
  8
Visible
100
AcDbLine
 10
4326.830391499326
 20
2832.36986233244
 30
0.0
 11
4313.830391499326
 21
2832.369862332439
 31
0.0
  0
LINE
  5
A62C
330
1ABC
100
AcDbEntity
  8
Visible
100
AcDbLine
 10
4367.830391499325
 20
2832.36986233244
 30
0.0
 11
4326.830391499326
 21
2832.36986233244
 31
0.0
  0
LINE
  5
A62D
330
1ABC
100
AcDbEntity
  8
Visible
100
AcDbLine
 10
4367.830391499325
 20
2832.36986233244
 30
0.0
 11
4367.830391499325
 21
2834.869862332439
 31
0.0
  0
LINE
  5
A62E
330
1ABC
100
AcDbEntity
  8
Visible
100
AcDbLine
 10
4367.830391499325
 20
2876.869862332439
 30
0.0
 11
4367.830391499325
 21
2879.36986233244
 31
0.0
  0
CIRCLE
  5
A62F
330
1ABC
100
AcDbEntity
  8
Visible
100
AcDbCircle
 10
2219.130391499327
 20
2855.869862332441
 30
0.0
 40
8.500000000000001
  0
LINE
  5
A630
330
1ABC
100
AcDbEntity
  8
Visible
100
AcDbLine
 10
2201.130391499328
 20
2835.869862332442
 30
0.0
 11
2201.130391499328
 21
2875.869862332441
 31
0.0
  0
LINE
  5
A63D
330
1ABC
100
AcDbEntity
  8
Visible
100
AcDbLine
 10
2201.130391499328
 20
2876.869862332442
 30
0.0
 11
2201.130391499328
 21
2875.869862332441
 31
0.0
  0
LINE
  5
A63E
330
1ABC
100
AcDbEntity
  8
Visible
100
AcDbLine
 10
2201.130391499328
 20
2835.869862332442
 30
0.0
 11
2201.130391499328
 21
2834.869862332442
 31
0.0
  0
LINE
  5
A63F
330
1ABC
100
AcDbEntity
  8
Visible
100
AcDbLine
 10
2267.130391499331
 20
2879.369862332441
 30
0.0
 11
2267.130391499331
 21
2869.869862332432
 31
0.0
  0
LINE
  5
A644
330
1ABC
100
AcDbEntity
  8
Visible
100
AcDbLine
 10
2242.130391499328
 20
2832.369862332441
 30
0.0
 11
2265.98039149933
 21
2832.369862332439
 31
0.0
  0
LINE
  5
A645
330
1ABC
100
AcDbEntity
  8
Visible
100
AcDbLine
 10
2201.130391499328
 20
2832.369862332441
 30
0.0
 11
2242.130391499328
 21
2832.369862332441
 31
0.0
  0
LINE
  5
A647
330
1ABC
100
AcDbEntity
  8
Visible
100
AcDbLine
 10
2201.130391499328
 20
2879.369862332441
 30
0.0
 11
2267.130391499331
 21
2879.369862332441
 31
0.0
  0
LINE
  5
A648
330
1ABC
100
AcDbEntity
  8
Visible
100
AcDbLine
 10
2201.130391499328
 20
2879.369862332441
 30
0.0
 11
2201.130391499328
 21
2876.869862332441
 31
0.0
  0
LINE
  5
A649
330
1ABC
100
AcDbEntity
  8
Visible
100
AcDbLine
 10
2201.130391499328
 20
2834.869862332441
 30
0.0
 11
2201.130391499328
 21
2832.369862332441
 31
0.0
  0
CIRCLE
  5
A64A
330
1ABC
100
AcDbEntity
  8
Visible
100
AcDbCircle
 10
4271.270391499297
 20
2577.123862332132
 30
0.0
 40
8.500000000000012
  0
LINE
  5
A64B
330
1ABC
100
AcDbEntity
  8
Visible
100
AcDbLine
 10
4289.270391499302
 20
2597.123862332129
 30
0.0
 11
4289.270391499294
 21
2557.123862332128
 31
0.0
  0
LINE
  5
A658
330
1ABC
100
AcDbEntity
  8
Visible
100
AcDbLine
 10
4289.270391499296
 20
2556.123862332129
 30
0.0
 11
4289.270391499294
 21
2557.123862332128
 31
0.0
  0
LINE
  5
A659
330
1ABC
100
AcDbEntity
  8
Visible
100
AcDbLine
 10
4289.270391499302
 20
2597.123862332129
 30
0.0
 11
4289.270391499302
 21
2598.123862332129
 31
0.0
  0
LINE
  5
A65D
330
1ABC
100
AcDbEntity
  8
Visible
100
AcDbLine
 10
4235.270391499319
 20
2600.623862332128
 30
0.0
 11
4223.271391510163
 21
2600.623862332129
 31
0.0
  0
LINE
  5
A65E
330
1ABC
100
AcDbEntity
  8
Visible
100
AcDbLine
 10
4248.270391499304
 20
2600.623862332134
 30
0.0
 11
4235.270391499307
 21
2600.623862332134
 31
0.0
  0
LINE
  5
A65F
330
1ABC
100
AcDbEntity
  8
Visible
100
AcDbLine
 10
4289.270391499304
 20
2600.623862332128
 30
0.0
 11
4248.270391499304
 21
2600.623862332134
 31
0.0
  0
LINE
  5
A662
330
1ABC
100
AcDbEntity
  8
Visible
100
AcDbLine
 10
4289.270391499296
 20
2553.463862332092
 30
0.0
 11
4289.270391499297
 21
2556.123862332127
 31
0.0
  0
LINE
  5
A663
330
1ABC
100
AcDbEntity
  8
Visible
100
AcDbLine
 10
4289.270391499303
 20
2598.123862332128
 30
0.0
 11
4289.270391499304
 21
2600.623862332128
 31
0.0
  0
CIRCLE
  5
A664
330
1ABC
100
AcDbEntity
  8
Visible
100
AcDbCircle
 10
2250.880391499248
 20
2577.123862332444
 30
0.0
 40
8.500000000000012
  0
LINE
  5
A665
330
1ABC
100
AcDbEntity
  8
Visible
100
AcDbLine
 10
2232.880391499249
 20
2557.123862332443
 30
0.0
 11
2232.880391499249
 21
2597.123862332444
 31
0.0
  0
LINE
  5
A66E
330
1ABC
100
AcDbEntity
  8
Visible
100
AcDbLine
 10
2286.880391499265
 20
2600.623862332435
 30
0.0
 11
2294.880391499268
 21
2600.623862332435
 31
0.0
  0
LINE
  5
A671
330
1ABC
100
AcDbEntity
  8
Visible
100
AcDbLine
 10
2286.880391499265
 20
2553.623862332435
 30
0.0
 11
2294.880391499261
 21
2553.623862332435
 31
0.0
  0
LINE
  5
A672
330
1ABC
100
AcDbEntity
  8
Visible
100
AcDbLine
 10
2273.880391499251
 20
2553.623862332443
 30
0.0
 11
2286.880391499254
 21
2553.623862332441
 31
0.0
  0
LINE
  5
A673
330
1ABC
100
AcDbEntity
  8
Visible
100
AcDbLine
 10
2232.880391499251
 20
2553.623862332443
 30
0.0
 11
2273.880391499251
 21
2553.623862332443
 31
0.0
  0
LINE
  5
A674
330
1ABC
100
AcDbEntity
  8
Visible
100
AcDbLine
 10
2273.880391499251
 20
2600.623862332442
 30
0.0
 11
2286.880391499254
 21
2600.623862332441
 31
0.0
  0
LINE
  5
A675
330
1ABC
100
AcDbEntity
  8
Visible
100
AcDbLine
 10
2232.880391499251
 20
2600.623862332442
 30
0.0
 11
2273.880391499251
 21
2600.623862332442
 31
0.0
  0
LINE
  5
A676
330
1ABC
100
AcDbEntity
  8
Visible
100
AcDbLine
 10
2232.880391499251
 20
2600.623862332442
 30
0.0
 11
2232.880391499251
 21
2598.123862332443
 31
0.0
  0
LINE
  5
A677
330
1ABC
100
AcDbEntity
  8
Visible
100
AcDbLine
 10
2232.880391499251
 20
2556.123862332443
 30
0.0
 11
2232.880391499251
 21
2553.623862332443
 31
0.0
  0
LINE
  5
A678
330
1ABC
100
AcDbEntity
  8
Visible
100
AcDbLine
 10
2232.880391499249
 20
2598.123862332443
 30
0.0
 11
2232.880391499249
 21
2597.123862332443
 31
0.0
  0
LINE
  5
A679
330
1ABC
100
AcDbEntity
  8
Visible
100
AcDbLine
 10
2232.880391499249
 20
2557.123862332443
 30
0.0
 11
2232.880391499249
 21
2556.123862332444
 31
0.0
  0
CIRCLE
  5
A67A
330
1ABC
100
AcDbEntity
  8
Visible
100
AcDbCircle
 10
2251.83139151008
 20
2207.10786233244
 30
0.0
 40
8.500000000000012
  0
LINE
  5
A67B
330
1ABC
100
AcDbEntity
  8
Visible
100
AcDbLine
 10
2233.831391510078
 20
2187.107862332442
 30
0.0
 11
2233.831391510084
 21
2227.107862332442
 31
0.0
  0
LINE
  5
A687
330
1ABC
100
AcDbEntity
  8
Visible
100
AcDbLine
 10
2233.831391510085
 20
2228.107862332442
 30
0.0
 11
2233.831391510084
 21
2227.107862332442
 31
0.0
  0
LINE
  5
A688
330
1ABC
100
AcDbEntity
  8
Visible
100
AcDbLine
 10
2233.831391510078
 20
2187.107862332442
 30
0.0
 11
2233.831391510078
 21
2186.107862332442
 31
0.0
  0
LINE
  5
A689
330
1ABC
100
AcDbEntity
  8
Visible
100
AcDbLine
 10
2299.831391510096
 20
2196.107862332417
 30
0.0
 11
2299.831391510096
 21
2195.657862332419
 31
0.0
  0
LINE
  5
A68A
330
1ABC
100
AcDbEntity
  8
Visible
100
AcDbLine
 10
2299.831391510095
 20
2191.657862332418
 30
0.0
 11
2299.831391510093
 21
2183.607862332422
 31
0.0
  0
LINE
  5
A68B
330
1ABC
100
AcDbEntity
  8
Visible
100
AcDbLine
 10
2287.831391510101
 20
2230.607862332425
 30
0.0
 11
2294.880391499209
 21
2230.607862332423
 31
0.0
  0
LINE
  5
A68E
330
1ABC
100
AcDbEntity
  8
Visible
100
AcDbLine
 10
2287.831391510094
 20
2183.607862332424
 30
0.0
 11
2299.831391510093
 21
2183.607862332422
 31
0.0
  0
LINE
  5
A68F
330
1ABC
100
AcDbEntity
  8
Visible
100
AcDbLine
 10
2274.831391510079
 20
2183.607862332435
 30
0.0
 11
2287.831391510082
 21
2183.607862332431
 31
0.0
  0
LINE
  5
A690
330
1ABC
100
AcDbEntity
  8
Visible
100
AcDbLine
 10
2233.831391510079
 20
2183.607862332441
 30
0.0
 11
2274.831391510079
 21
2183.607862332435
 31
0.0
  0
LINE
  5
A691
330
1ABC
100
AcDbEntity
  8
Visible
100
AcDbLine
 10
2274.831391510087
 20
2230.607862332434
 30
0.0
 11
2287.831391510089
 21
2230.607862332431
 31
0.0
  0
LINE
  5
A692
330
1ABC
100
AcDbEntity
  8
Visible
100
AcDbLine
 10
2233.831391510086
 20
2230.607862332441
 30
0.0
 11
2274.831391510087
 21
2230.607862332435
 31
0.0
  0
LINE
  5
A693
330
1ABC
100
AcDbEntity
  8
Visible
100
AcDbLine
 10
2233.831391510086
 20
2230.607862332441
 30
0.0
 11
2233.831391510086
 21
2228.107862332441
 31
0.0
  0
LINE
  5
A694
330
1ABC
100
AcDbEntity
  8
Visible
100
AcDbLine
 10
2233.831391510079
 20
2186.107862332441
 30
0.0
 11
2233.831391510079
 21
2183.607862332441
 31
0.0
  0
CIRCLE
  5
A695
330
1ABC
100
AcDbEntity
  8
Visible
100
AcDbCircle
 10
4271.270391499306
 20
2207.107862332123
 30
0.0
 40
8.500000000000012
  0
LINE
  5
A696
330
1ABC
100
AcDbEntity
  8
Visible
100
AcDbLine
 10
4289.270391499306
 20
2227.107862332123
 30
0.0
 11
4289.270391499306
 21
2187.107862332123
 31
0.0
  0
LINE
  5
A6A3
330
1ABC
100
AcDbEntity
  8
Visible
100
AcDbLine
 10
4289.270391499306
 20
2186.107862332123
 30
0.0
 11
4289.270391499306
 21
2187.107862332123
 31
0.0
  0
LINE
  5
A6A4
330
1ABC
100
AcDbEntity
  8
Visible
100
AcDbLine
 10
4289.270391499306
 20
2227.107862332123
 30
0.0
 11
4289.270391499306
 21
2228.107862332123
 31
0.0
  0
LINE
  5
A6A5
330
1ABC
100
AcDbEntity
  8
Visible
100
AcDbLine
 10
4223.270391499323
 20
2183.607862332114
 30
0.0
 11
4223.270391499323
 21
2196.10786233211
 31
0.0
  0
LINE
  5
A6A6
330
1ABC
100
AcDbEntity
  8
Visible
100
AcDbLine
 10
4235.270391499323
 20
2183.607862332114
 30
0.0
 11
4223.270391499323
 21
2183.607862332114
 31
0.0
  0
LINE
  5
A6A9
330
1ABC
100
AcDbEntity
  8
Visible
100
AcDbLine
 10
4235.270391499323
 20
2230.607862332114
 30
0.0
 11
4223.271391510105
 21
2230.607862332114
 31
0.0
  0
LINE
  5
A6AA
330
1ABC
100
AcDbEntity
  8
Visible
100
AcDbLine
 10
4248.270391499309
 20
2230.607862332122
 30
0.0
 11
4235.270391499311
 21
2230.60786233212
 31
0.0
  0
LINE
  5
A6AB
330
1ABC
100
AcDbEntity
  8
Visible
100
AcDbLine
 10
4289.270391499309
 20
2230.607862332122
 30
0.0
 11
4248.270391499309
 21
2230.607862332122
 31
0.0
  0
LINE
  5
A6AC
330
1ABC
100
AcDbEntity
  8
Visible
100
AcDbLine
 10
4248.270391499309
 20
2183.607862332122
 30
0.0
 11
4235.270391499311
 21
2183.60786233212
 31
0.0
  0
LINE
  5
A6AD
330
1ABC
100
AcDbEntity
  8
Visible
100
AcDbLine
 10
4289.270391499309
 20
2183.607862332122
 30
0.0
 11
4248.270391499309
 21
2183.607862332122
 31
0.0
  0
LINE
  5
A6AE
330
1ABC
100
AcDbEntity
  8
Visible
100
AcDbLine
 10
4289.270391499309
 20
2183.607862332122
 30
0.0
 11
4289.270391499309
 21
2186.107862332122
 31
0.0
  0
LINE
  5
A6AF
330
1ABC
100
AcDbEntity
  8
Visible
100
AcDbLine
 10
4289.270391499309
 20
2228.107862332122
 30
0.0
 11
4289.270391499309
 21
2230.607862332122
 31
0.0
  0
LINE
  5
A6BA
330
1ABC
100
AcDbEntity
  8
Visible
100
AcDbLine
 10
2301.180749599384
 20
2930.219862332436
 30
0.0
 11
2301.180749599384
 21
2872.319862332453
 31
0.0
  0
LINE
  5
A6C1
330
1ABC
100
AcDbEntity
  8
Visible
100
AcDbLine
 10
4223.580391499324
 20
2871.369862332435
 30
0.0
 11
4223.580391499324
 21
2930.169862332435
 31
0.0
  0
LINE
  5
A6C2
330
1ABC
100
AcDbEntity
  8
Visible
100
AcDbLine
 10
4223.580391499324
 20
2930.169862332435
 30
0.0
 11
4221.53039149933
 21
2930.169862332435
 31
0.0
  0
ELLIPSE
  5
A6E0
330
1ABC
100
AcDbEntity
  8
Visible
100
AcDbEllipse
 10
4344.324201410624
 20
2646.214191231706
 30
0.0
 11
-0.0013893205046391
 21
-9.99999990348942
 31
0.0
210
0.0
220
0.0
230
1.0
 40
0.0049265178032173
 41
0.000000000080246
 42
3.141592653670039
  0
LINE
  5
A6E1
330
1ABC
100
AcDbEntity
  8
Visible
100
AcDbLine
 10
4303.430391499232
 20
2656.219872789133
 30
0.0
 11
4344.325590731129
 21
2656.214191135195
 31
0.0
  0
LINE
  5
A6E2
330
1ABC
100
AcDbEntity
  8
Visible
100
AcDbLine
 10
4303.430391499231
 20
2636.219872596112
 30
0.0
 11
4344.322812090118
 21
2636.214191328216
 31
0.0
  0
ELLIPSE
  5
A6E3
330
1ABC
100
AcDbEntity
  8
Visible
100
AcDbEllipse
 10
4347.174166797395
 20
2646.213795280167
 30
0.0
 11
0.0013233277806489
 21
9.524999908073898
 31
0.0
210
0.0
220
0.0
230
1.0
 40
0.0049265178036188
 41
3.141592653019859
 42
6.283185306609652
  0
LINE
  5
A6E4
330
1ABC
100
AcDbEntity
  8
Visible
100
AcDbLine
 10
4347.172843469614
 20
2636.688795372093
 30
0.0
 11
4344.337881230325
 21
2636.689189239213
 31
0.0
  0
LINE
  5
A6E5
330
1ABC
100
AcDbEntity
  8
Visible
100
AcDbLine
 10
4347.175490125175
 20
2655.73879518824
 30
0.0
 11
4344.340527885885
 21
2655.739189055361
 31
0.0
  0
LINE
  5
A6EA
330
1ABC
100
AcDbEntity
  8
Visible
100
AcDbLine
 10
2236.630391499334
 20
2841.869862332432
 30
0.0
 11
2236.630391499334
 21
2869.869862332432
 31
0.0
  0
LINE
  5
A6EB
330
1ABC
100
AcDbEntity
  8
Visible
100
AcDbLine
 10
2236.630391499334
 20
2869.869862332432
 30
0.0
 11
2264.620391499334
 21
2869.869862332432
 31
0.0
  0
LINE
  5
A6EC
330
1ABC
100
AcDbEntity
  8
Visible
100
AcDbLine
 10
2264.620391499334
 20
2841.869862332432
 30
0.0
 11
2236.630391499334
 21
2841.869862332432
 31
0.0
  0
LINE
  5
A6ED
330
1ABC
100
AcDbEntity
  8
Visible
100
AcDbLine
 10
2264.620391499334
 20
2841.869862332433
 30
0.0
 11
2267.130391499333
 21
2841.869862332433
 31
0.0
  0
LINE
  5
A6EE
330
1ABC
100
AcDbEntity
  8
Visible
100
AcDbLine
 10
2267.130391499333
 20
2871.369862332436
 30
0.0
 11
2267.130391499333
 21
2841.869862332433
 31
0.0
  0
LINE
  5
A6EF
330
1ABC
100
AcDbEntity
  8
Visible
100
AcDbLine
 10
2264.620391499334
 20
2869.869862332432
 30
0.0
 11
2267.130391499333
 21
2869.869862332432
 31
0.0
  0
LINE
  5
A6F4
330
1ABC
100
AcDbEntity
  8
Visible
100
AcDbLine
 10
4332.330391499334
 20
2869.869862332434
 30
0.0
 11
4332.330391499334
 21
2841.869862332435
 31
0.0
  0
LINE
  5
A6F5
330
1ABC
100
AcDbEntity
  8
Visible
100
AcDbLine
 10
4332.330391499334
 20
2841.869862332435
 30
0.0
 11
4304.340391499334
 21
2841.869862332435
 31
0.0
  0
LINE
  5
A6F6
330
1ABC
100
AcDbEntity
  8
Visible
100
AcDbLine
 10
4304.340391499334
 20
2869.869862332434
 30
0.0
 11
4332.330391499334
 21
2869.869862332434
 31
0.0
  0
LINE
  5
A6F7
330
1ABC
100
AcDbEntity
  8
Visible
100
AcDbLine
 10
4304.340391499334
 20
2869.869862332434
 30
0.0
 11
4301.830391499334
 21
2869.869862332434
 31
0.0
  0
LINE
  5
A6F8
330
1ABC
100
AcDbEntity
  8
Visible
100
AcDbLine
 10
4301.830391499334
 20
2841.869862332435
 30
0.0
 11
4301.830391499334
 21
2871.369862332434
 31
0.0
  0
LINE
  5
A6F9
330
1ABC
100
AcDbEntity
  8
Visible
100
AcDbLine
 10
4304.340391499334
 20
2841.869862332435
 30
0.0
 11
4301.830391499334
 21
2841.869862332435
 31
0.0
  0
LINE
  5
A6FE
330
1ABC
100
AcDbEntity
  8
Visible
100
AcDbLine
 10
2269.331391510103
 20
2196.107862332421
 30
0.0
 11
2269.331391510107
 21
2224.107862332421
 31
0.0
  0
LINE
  5
A6FF
330
1ABC
100
AcDbEntity
  8
Visible
100
AcDbLine
 10
2269.331391510107
 20
2224.107862332421
 30
0.0
 11
2297.321391510108
 21
2224.107862332417
 31
0.0
  0
LINE
  5
A700
330
1ABC
100
AcDbEntity
  8
Visible
100
AcDbLine
 10
2297.321391510103
 20
2196.107862332417
 30
0.0
 11
2269.331391510103
 21
2196.107862332421
 31
0.0
  0
LINE
  5
A701
330
1ABC
100
AcDbEntity
  8
Visible
100
AcDbLine
 10
2297.321391510103
 20
2196.107862332417
 30
0.0
 11
2299.831391510103
 21
2196.107862332417
 31
0.0
  0
LINE
  5
A702
330
1ABC
100
AcDbEntity
  8
Visible
100
AcDbLine
 10
2299.831391510107
 20
2224.107862332417
 30
0.0
 11
2299.831391510102
 21
2196.107862332417
 31
0.0
  0
LINE
  5
A703
330
1ABC
100
AcDbEntity
  8
Visible
100
AcDbLine
 10
2297.321391510108
 20
2224.107862332417
 30
0.0
 11
2299.831391510107
 21
2224.107862332417
 31
0.0
  0
LINE
  5
A708
330
1ABC
100
AcDbEntity
  8
Visible
100
AcDbLine
 10
4252.821391510102
 20
2224.107862332109
 30
0.0
 11
4252.821391510102
 21
2196.107862332109
 31
0.0
  0
LINE
  5
A709
330
1ABC
100
AcDbEntity
  8
Visible
100
AcDbLine
 10
4252.821391510102
 20
2196.107862332109
 30
0.0
 11
4224.831391510103
 21
2196.107862332109
 31
0.0
  0
LINE
  5
A70A
330
1ABC
100
AcDbEntity
  8
Visible
100
AcDbLine
 10
4224.831391510103
 20
2224.107862332109
 30
0.0
 11
4252.821391510102
 21
2224.107862332109
 31
0.0
  0
LINE
  5
A70B
330
1ABC
100
AcDbEntity
  8
Visible
100
AcDbLine
 10
4224.831391510103
 20
2224.107862332109
 30
0.0
 11
4222.321391510101
 21
2224.107862332109
 31
0.0
  0
LINE
  5
A70C
330
1ABC
100
AcDbEntity
  8
Visible
100
AcDbLine
 10
4222.321391510101
 20
2196.107862332109
 30
0.0
 11
4222.321391510101
 21
2224.107862332109
 31
0.0
  0
LINE
  5
A70D
330
1ABC
100
AcDbEntity
  8
Visible
100
AcDbLine
 10
4224.831391510103
 20
2196.107862332109
 30
0.0
 11
4222.321391510101
 21
2196.107862332109
 31
0.0
  0
LINE
  5
A70F
330
1ABC
100
AcDbEntity
  8
Visible
100
AcDbLine
 10
4352.980391499233
 20
2741.755038032462
 30
0.0
 11
4352.980391499233
 21
2757.635038032462
 31
0.0
  0
LINE
  5
A710
330
1ABC
100
AcDbEntity
  8
Visible
100
AcDbLine
 10
4352.980391499233
 20
2741.755038032462
 30
0.0
 11
4322.980391499237
 21
2741.755038032462
 31
0.0
  0
LINE
  5
A712
330
1ABC
100
AcDbEntity
  8
Visible
100
AcDbLine
 10
4352.980391499233
 20
2757.635038032462
 30
0.0
 11
4322.980391499237
 21
2757.635038032462
 31
0.0
  0
LINE
  5
A716
330
1ABC
100
AcDbEntity
  8
Visible
100
AcDbLine
 10
2249.164875231239
 20
2881.319862332464
 30
0.0
 11
2249.164875231239
 21
2880.169862332463
 31
0.0
  0
LINE
  5
A717
330
1ABC
100
AcDbEntity
  8
Visible
100
AcDbLine
 10
2249.164875231214
 20
2880.169862332465
 30
0.0
 11
2249.16487523123
 21
2879.369862332441
 31
0.0
  0
LINE
  5
A718
330
1ABC
100
AcDbEntity
  8
Visible
100
AcDbLine
 10
4320.196010767237
 20
2880.169862332461
 30
0.0
 11
4320.196010767237
 21
2881.319862332461
 31
0.0
  0
LINE
  5
A719
330
1ABC
100
AcDbEntity
  8
Visible
100
AcDbLine
 10
4320.196010767235
 20
2879.369862332439
 30
0.0
 11
4320.196010767246
 21
2880.169862332462
 31
0.0
  0
LINE
  5
A71C
330
1ABC
100
AcDbEntity
  8
Visible
100
AcDbLine
 10
2246.380494499242
 20
2618.070213732462
 30
0.0
 11
2265.98039149933
 21
2618.070213732464
 31
0.0
  0
LINE
  5
A721
330
1ABC
100
AcDbEntity
  8
Visible
100
AcDbLine
 10
2249.164875231239
 20
2881.319862332464
 30
0.0
 11
2269.630494499239
 21
2881.319862332464
 31
0.0
  0
LINE
  5
A722
330
1ABC
100
AcDbEntity
  8
Visible
100
AcDbLine
 10
4299.730391499237
 20
2881.319862332461
 30
0.0
 11
4223.580391499324
 21
2881.319862332461
 31
0.0
  0
LINE
  5
A723
330
1ABC
100
AcDbEntity
  8
Visible
100
AcDbLine
 10
2301.180749599385
 20
2881.319862332463
 30
0.0
 11
2269.630494499239
 21
2881.319862332464
 31
0.0
  0
LINE
  5
A724
330
1ABC
100
AcDbEntity
  8
Visible
100
AcDbLine
 10
4299.730391499237
 20
2881.319862332461
 30
0.0
 11
4320.196010767237
 21
2881.319862332461
 31
0.0
  0
LINE
  5
A72D
330
1ABC
100
AcDbEntity
  8
Visible
100
AcDbLine
 10
4321.830391499237
 20
2633.8487644213
 30
0.0
 11
4321.830391499235
 21
2636.217316246359
 31
0.0
  0
LINE
  5
A730
330
1ABC
100
AcDbEntity
  8
Visible
100
AcDbLine
 10
4322.980391499237
 20
2659.214024443623
 30
0.0
 11
4322.980391499235
 21
2656.217156667521
 31
0.0
  0
LINE
  5
A731
330
1ABC
100
AcDbEntity
  8
Visible
100
AcDbLine
 10
4322.980391499235
 20
2636.217156474499
 30
0.0
 11
4322.980391499237
 21
2633.848764421301
 31
0.0
  0
LINE
  5
A732
330
1ABC
100
AcDbEntity
  8
Visible
100
AcDbLine
 10
4322.980391499237
 20
2618.070213732462
 30
0.0
 11
4322.980391499237
 21
2633.8487644213
 31
0.0
  0
LINE
  5
A733
330
1ABC
100
AcDbEntity
  8
Visible
100
AcDbLine
 10
4322.980391499237
 20
2659.214024443623
 30
0.0
 11
4322.980391499237
 21
2821.502950726111
 31
0.0
  0
LINE
  5
A735
330
1ABC
100
AcDbEntity
  8
Visible
100
AcDbLine
 10
4321.830391499237
 20
2618.070213732462
 30
0.0
 11
4321.830391499237
 21
2633.8487644213
 31
0.0
  0
LINE
  5
A739
330
1ABC
100
AcDbEntity
  8
Visible
100
AcDbLine
 10
2246.380494499242
 20
2832.369862332441
 30
0.0
 11
2246.380494499242
 21
2618.070213732462
 31
0.0
  0
ARC
  5
A74A
330
1ABC
100
AcDbEntity
  8
Visible
100
AcDbCircle
 10
4320.830391499238
 20
2618.070213732462
 30
0.0
 40
2.149999999999997
100
AcDbArc
 50
270.0
 51
0.0
  0
ARC
  5
A74B
330
1ABC
100
AcDbEntity
  8
Visible
100
AcDbCircle
 10
4320.830391499238
 20
2618.070213732462
 30
0.0
 40
1.000000000000049
100
AcDbArc
 50
270.0
 51
0.0
  0
LINE
  5
A752
330
1ABC
100
AcDbEntity
  8
Visible
100
AcDbLine
 10
4302.144391499238
 20
2617.070213732461
 30
0.0
 11
4320.830391499238
 21
2617.070213732461
 31
0.0
  0
LINE
  5
A753
330
1ABC
100
AcDbEntity
  8
Visible
100
AcDbLine
 10
4302.144391499238
 20
2617.070213732461
 30
0.0
 11
4302.144391499238
 21
2615.920213732462
 31
0.0
  0
LINE
  5
A754
330
1ABC
100
AcDbEntity
  8
Visible
100
AcDbLine
 10
4302.144391499238
 20
2615.920213732462
 30
0.0
 11
4320.830391499238
 21
2615.920213732462
 31
0.0
  0
LINE
  5
A765
330
1ABC
100
AcDbEntity
  8
Visible
100
AcDbLine
 10
4302.980391499326
 20
2618.019862332435
 30
0.0
 11
4231.570391499268
 21
2618.019862332435
 31
0.0
  0
LINE
  5
A766
330
1ABC
100
AcDbEntity
  8
Visible
100
AcDbLine
 10
2282.080391499272
 20
2618.019862332435
 30
0.0
 11
2265.98039149933
 21
2618.019862332435
 31
0.0
  0
LINE
  5
A76D
330
1ABC
100
AcDbEntity
  8
Visible
100
AcDbLine
 10
4221.530391499326
 20
2930.219862332435
 30
0.0
 11
2301.180749599385
 21
2930.219862332436
 31
0.0
  0
LINE
  5
A770
330
1ABC
100
AcDbEntity
  8
Visible
100
AcDbLine
 10
4302.980391499326
 20
2841.869862332434
 30
0.0
 11
4302.980391499326
 21
2618.019862332435
 31
0.0
  0
LINE
  5
A776
330
1ABC
100
AcDbEntity
  8
Visible
100
AcDbLine
 10
2265.98039149933
 20
2618.019862332435
 30
0.0
 11
2265.98039149933
 21
2841.869862332432
 31
0.0
  0
LINE
  5
A778
330
1ABC
100
AcDbEntity
  8
Visible
100
AcDbLine
 10
2267.130391499333
 20
2871.369862332436
 30
0.0
 11
4301.830391499334
 21
2871.369862332434
 31
0.0
  0
LINE
  5
A77C
330
1ABC
100
AcDbEntity
  8
Visible
100
AcDbLine
 10
2282.080391499272
 20
2618.019862332434
 30
0.0
 11
4231.57039149927
 21
2618.019862332124
 31
0.0
  0
LINE
  5
A848
330
1ABC
100
AcDbEntity
  8
Visible
100
AcDbLine
 10
4223.271391510106
 20
2243.757862332124
 30
0.0
 11
4223.271391510103
 21
2224.10786233211
 31
0.0
  0
LINE
  5
A849
330
1ABC
100
AcDbEntity
  8
Visible
100
AcDbLine
 10
4223.271391510165
 20
2618.019862332125
 30
0.0
 11
4223.271391510155
 21
2558.683862332125
 31
0.0
  0
LINE
  5
A84A
330
1ABC
100
AcDbEntity
  8
Visible
100
AcDbLine
 10
4223.271391510155
 20
2557.683862332125
 30
0.0
 11
4223.271391510131
 21
2401.720862332125
 31
0.0
  0
LINE
  5
A84E
330
1ABC
100
AcDbEntity
  8
Visible
100
AcDbLine
 10
4223.271391510131
 20
2400.720862332124
 30
0.0
 11
4223.271391510106
 21
2244.757862332124
 31
0.0
  0
LINE
  5
A85B
330
1ABC
100
AcDbEntity
  8
Visible
100
AcDbLine
 10
4223.270391499323
 20
2184.508061432159
 30
0.0
 11
4104.046391510058
 21
2184.508061432178
 31
0.0
  0
LINE
  5
A866
330
1ABC
100
AcDbEntity
  8
Visible
100
AcDbLine
 10
2294.880391499191
 20
2224.107862332416
 30
0.0
 11
2294.880391499191
 21
2226.607862332437
 31
0.0
  0
LINE
  5
A86B
330
1ABC
100
AcDbEntity
  8
Visible
100
AcDbLine
 10
2294.880391499271
 20
2618.019862332432
 30
0.0
 11
2294.880391499209
 21
2226.607862332427
 31
0.0
  0
LINE
  5
A86D
330
1ABC
100
AcDbEntity
  8
Visible
100
AcDbLine
 10
4222.821391510097
 20
2191.65786233211
 30
0.0
 11
4222.821391510097
 21
2196.107862332109
 31
0.0
  0
LINE
  5
A86F
330
1ABC
100
AcDbEntity
  8
Visible
100
AcDbLine
 10
2299.331391510099
 20
2191.657862332418
 30
0.0
 11
2299.3313915101
 21
2195.657862332419
 31
0.0
  0
LINE
  5
A870
330
1ABC
100
AcDbEntity
  8
Visible
100
AcDbLine
 10
2299.331391510099
 20
2191.657862332418
 30
0.0
 11
4222.821391510097
 21
2191.65786233211
 31
0.0
  0
LINE
  5
A898
330
1ABC
100
AcDbEntity
  8
Visible
100
AcDbLine
 10
2418.55639151006
 20
2144.371862332415
 30
0.0
 11
2418.556391510067
 21
2191.6578623324
 31
0.0
  0
LINE
  5
A899
330
1ABC
100
AcDbEntity
  8
Visible
100
AcDbLine
 10
2418.55639151006
 20
2144.371862332415
 30
0.0
 11
2420.956391510061
 21
2144.371862332414
 31
0.0
  0
LINE
  5
A89A
330
1ABC
100
AcDbEntity
  8
Visible
100
AcDbLine
 10
4104.046391510059
 20
2191.657862332129
 30
0.0
 11
4104.046391510052
 21
2144.371862332166
 31
0.0
  0
LINE
  5
A89B
330
1ABC
100
AcDbEntity
  8
Visible
100
AcDbLine
 10
4101.646391510052
 20
2144.371862332166
 30
0.0
 11
4104.046391510052
 21
2144.371862332166
 31
0.0
  0
LINE
  5
A89C
330
1ABC
100
AcDbEntity
  8
Visible
100
AcDbLine
 10
4101.646391510052
 20
2144.371862332166
 30
0.0
 11
2420.956391510061
 21
2144.371862332414
 31
0.0
  0
LINE
  5
A89D
330
1ABC
100
AcDbEntity
  8
Visible
100
AcDbLine
 10
4223.270391499265
 20
2243.757862332124
 30
0.0
 11
4223.270391499265
 21
2244.757862332124
 31
0.0
  0
LINE
  5
A89E
330
1ABC
100
AcDbEntity
  8
Visible
100
AcDbLine
 10
4223.270391499291
 20
2400.720862332124
 30
0.0
 11
4223.270391499291
 21
2401.720862332124
 31
0.0
  0
LINE
  5
A89F
330
1ABC
100
AcDbEntity
  8
Visible
100
AcDbLine
 10
4223.270391499316
 20
2557.683862332124
 30
0.0
 11
4223.270391499316
 21
2558.683862332124
 31
0.0
  0
LINE
  5
A903
330
1ABC
100
AcDbEntity
  8
Visible
100
AcDbLine
 10
4220.933891499327
 20
2618.019862332125
 30
0.0
 11
2301.216891499332
 21
2618.019862332431
 31
0.0
  0
LINE
  5
ABD1
330
1ABC
100
AcDbEntity
  8
Visible
100
AcDbLine
 10
4245.015802540218
 20
1337.625471879922
 30
0.0
 11
4223.321391509654
 21
1337.625471879934
 31
0.0
  0
LINE
  5
ABDA
330
1ABC
100
AcDbEntity
  8
Visible
100
AcDbLine
 10
4245.015802540218
 20
1337.625471879922
 30
0.0
 11
4318.205391498821
 21
1337.625471879905
 31
0.0
  0
LINE
  5
ABDB
330
1ABC
100
AcDbEntity
  8
Visible
100
AcDbLine
 10
4318.20539149891
 20
1726.215471879903
 30
0.0
 11
4245.015802540314
 21
1726.21547187992
 31
0.0
  0
LINE
  5
ABE0
330
1ABC
100
AcDbEntity
  8
Visible
100
AcDbLine
 10
4224.821391509745
 20
1726.215471879931
 30
0.0
 11
4245.015802540314
 21
1726.21547187992
 31
0.0
  0
LINE
  5
ABED
330
1ABC
100
AcDbEntity
  8
Visible
100
AcDbLine
 10
4320.155391498824
 20
1344.575471879904
 30
0.0
 11
4320.155391498909
 21
1719.265471879903
 31
0.0
  0
LINE
  5
ABF0
330
1ABC
100
AcDbEntity
  8
Visible
100
AcDbLine
 10
4320.155391498909
 20
1719.275471879903
 30
0.0
 11
4320.155391498909
 21
1719.265471879903
 31
0.0
  0
LINE
  5
ABF2
330
1ABC
100
AcDbEntity
  8
Visible
100
AcDbLine
 10
4320.155391498824
 20
1344.575471879904
 30
0.0
 11
4320.155391498824
 21
1344.565471879904
 31
0.0
  0
LINE
  5
ABF8
330
1ABC
100
AcDbEntity
  8
Visible
100
AcDbLine
 10
4320.155391498909
 20
1719.275471879903
 30
0.0
 11
4320.155391498909
 21
1724.265471879903
 31
0.0
  0
LINE
  5
ABFA
330
1ABC
100
AcDbEntity
  8
Visible
100
AcDbLine
 10
4320.155391498821
 20
1339.575471879904
 30
0.0
 11
4320.155391498824
 21
1344.565471879904
 31
0.0
  0
ARC
  5
ABFC
330
1ABC
100
AcDbEntity
  8
Visible
100
AcDbCircle
 10
4318.205391498823
 20
1339.575471879905
 30
0.0
 40
1.949999999999854
100
AcDbArc
 50
269.999999999987
 51
0.0
  0
ARC
  5
ABFE
330
1ABC
100
AcDbEntity
  8
Visible
100
AcDbCircle
 10
4318.20539149891
 20
1724.265471879903
 30
0.0
 40
1.949999999999993
100
AcDbArc
 50
0.0
 51
89.99999999998697
  0
LINE
  5
ACB8
330
1ABC
100
AcDbEntity
  8
Visible
100
AcDbLine
 10
4351.037586673827
 20
1435.252736080293
 30
0.0
 11
4351.037586673827
 21
1403.252736080293
 31
0.0
  0
LINE
  5
ACB9
330
1ABC
100
AcDbEntity
  8
Visible
100
AcDbLine
 10
4349.837586673827
 20
1435.252736080293
 30
0.0
 11
4351.037586673827
 21
1435.252736080293
 31
0.0
  0
LINE
  5
ACBA
330
1ABC
100
AcDbEntity
  8
Visible
100
AcDbLine
 10
4349.837586673827
 20
1403.252736080293
 30
0.0
 11
4351.037586673828
 21
1403.252736080293
 31
0.0
  0
LINE
  5
ACBB
330
1ABC
100
AcDbEntity
  8
Visible
100
AcDbLine
 10
4341.187586673828
 20
1466.902736080293
 30
0.0
 11
4341.187586673828
 21
1480.602736080293
 31
0.0
  0
ARC
  5
ACBC
330
1ABC
100
AcDbEntity
  8
Visible
100
AcDbCircle
 10
4340.321561270044
 20
1466.402736080293
 30
0.0
 40
1.0
100
AcDbArc
 50
29.99999999999728
 51
90.0
  0
ARC
  5
ACBD
330
1ABC
100
AcDbEntity
  8
Visible
100
AcDbCircle
 10
4340.321561270044
 20
1481.102736080293
 30
0.0
 40
1.0
100
AcDbArc
 50
270.0
 51
330.0000000000027
  0
LINE
  5
ACBE
330
1ABC
100
AcDbEntity
  8
Visible
100
AcDbLine
 10
4353.887586673828
 20
1480.602736080293
 30
0.0
 11
4353.887586673828
 21
1466.902736080293
 31
0.0
  0
LINE
  5
ACBF
330
1ABC
100
AcDbEntity
  8
Visible
100
AcDbLine
 10
4353.887586673828
 20
1466.902736080293
 30
0.0
 11
4341.187586673828
 21
1466.902736080293
 31
0.0
  0
LINE
  5
ACC0
330
1ABC
100
AcDbEntity
  8
Visible
100
AcDbLine
 10
4353.887586673828
 20
1480.602736080293
 30
0.0
 11
4341.187586673828
 21
1480.602736080293
 31
0.0
  0
LINE
  5
ACC1
330
1ABC
100
AcDbEntity
  8
Visible
100
AcDbLine
 10
4340.321561270044
 20
1467.402736080293
 30
0.0
 11
4321.155391498872
 21
1467.402736080293
 31
0.0
  0
LINE
  5
ACC2
330
1ABC
100
AcDbEntity
  8
Visible
100
AcDbLine
 10
4340.321561270044
 20
1480.102736080293
 30
0.0
 11
4321.155391498875
 21
1480.102736080293
 31
0.0
  0
LINE
  5
ACC3
330
1ABC
100
AcDbEntity
  8
Visible
100
AcDbLine
 10
4377.097586673828
 20
1467.481970576783
 30
0.0
 11
4377.097586673828
 21
1480.023501583802
 31
0.0
  0
LINE
  5
ACC4
330
1ABC
100
AcDbEntity
  8
Visible
100
AcDbLine
 10
4374.097586673828
 20
1480.023501583802
 30
0.0
 11
4377.097586673828
 21
1480.023501583802
 31
0.0
  0
LINE
  5
ACC5
330
1ABC
100
AcDbEntity
  8
Visible
100
AcDbLine
 10
4374.097586673828
 20
1467.481970576783
 30
0.0
 11
4374.097586673828
 21
1480.023501583802
 31
0.0
  0
LINE
  5
ACC6
330
1ABC
100
AcDbEntity
  8
Visible
100
AcDbLine
 10
4374.097586673828
 20
1467.481970576783
 30
0.0
 11
4377.097586673828
 21
1467.481970576783
 31
0.0
  0
LINE
  5
ACC7
330
1ABC
100
AcDbEntity
  8
Visible
100
AcDbLine
 10
4377.097586673828
 20
1480.102736080293
 30
0.0
 11
4377.097586673828
 21
1480.023501583802
 31
0.0
  0
LINE
  5
ACC8
330
1ABC
100
AcDbEntity
  8
Visible
100
AcDbLine
 10
4377.097586673828
 20
1467.481970576783
 30
0.0
 11
4377.097586673828
 21
1467.402736080293
 31
0.0
  0
LINE
  5
ACC9
330
1ABC
100
AcDbEntity
  8
Visible
100
AcDbLine
 10
4374.097586673828
 20
1480.102736080293
 30
0.0
 11
4377.097586673828
 21
1480.102736080293
 31
0.0
  0
SPLINE
  5
ACCA
330
1ABC
100
AcDbEntity
  8
Visible
100
AcDbSpline
210
0.0
220
0.0
230
1.0
 70
    24
 71
     3
 72
     8
 73
     4
 74
     0
 42
0.0000000001
 43
0.0000000001
 40
0.0
 40
0.0
 40
0.0
 40
0.0
 40
1.0
 40
1.0
 40
1.0
 40
1.0
 10
4369.097586673828
 20
1480.023501583802
 30
0.0
 10
4370.764253340505
 20
1480.023501583804
 30
0.0
 10
4372.43092000715
 20
1480.0235015838
 30
0.0
 10
4374.097586673828
 20
1480.023501583802
 30
0.0
  0
LINE
  5
ACCB
330
1ABC
100
AcDbEntity
  8
Visible
100
AcDbLine
 10
4369.097586673828
 20
1473.752736080291
 30
0.0
 11
4369.097586673828
 21
1467.481970576783
 31
0.0
  0
SPLINE
  5
ACCC
330
1ABC
100
AcDbEntity
  8
Visible
100
AcDbSpline
210
0.0
220
0.0
230
1.0
 70
    24
 71
     3
 72
     8
 73
     4
 74
     0
 42
0.0000000001
 43
0.0000000001
 40
0.0
 40
0.0
 40
0.0
 40
0.0
 40
1.0
 40
1.0
 40
1.0
 40
1.0
 10
4369.097586673828
 20
1467.481970576783
 30
0.0
 10
4370.764253340505
 20
1467.481970576782
 30
0.0
 10
4372.43092000715
 20
1467.481970576785
 30
0.0
 10
4374.097586673828
 20
1467.481970576783
 30
0.0
  0
LINE
  5
ACCD
330
1ABC
100
AcDbEntity
  8
Visible
100
AcDbLine
 10
4369.097586673828
 20
1480.023501583802
 30
0.0
 11
4369.097586673828
 21
1473.752736080291
 31
0.0
  0
SPLINE
  5
ACCE
330
1ABC
100
AcDbEntity
  8
Visible
100
AcDbSpline
210
0.0
220
0.0
230
1.0
 70
     8
 71
     3
 72
     8
 73
     4
 74
     0
 42
0.0000000001
 43
0.0000000001
 40
0.0
 40
0.0
 40
0.0
 40
0.0
 40
0.5
 40
0.5
 40
0.5
 40
0.5
 10
4369.097586673828
 20
1480.102736080293
 30
0.0
 10
4370.764071996222
 20
1480.100797874348
 30
0.0
 10
4372.431560253598
 20
1480.099093998676
 30
0.0
 10
4374.097586673828
 20
1480.102736080293
 30
0.0
  0
LINE
  5
ACCF
330
1ABC
100
AcDbEntity
  8
Visible
100
AcDbLine
 10
4353.887586673828
 20
1480.102736080293
 30
0.0
 11
4369.097586673828
 21
1480.102736080293
 31
0.0
  0
LINE
  5
ACD0
330
1ABC
100
AcDbEntity
  8
Visible
100
AcDbLine
 10
4353.887586673828
 20
1467.402736080293
 30
0.0
 11
4377.097586673828
 21
1467.402736080293
 31
0.0
  0
LINE
  5
ACD3
330
1ABC
100
AcDbEntity
  8
Visible
100
AcDbLine
 10
4349.837586673651
 20
1398.252736079031
 30
0.0
 11
4349.837586674002
 21
1440.252736079031
 31
0.0
  0
LINE
  5
ACD4
330
1ABC
100
AcDbEntity
  8
Visible
100
AcDbLine
 10
4349.837586673651
 20
1398.252736079031
 30
0.0
 11
4320.155391498835
 21
1398.252736079278
 31
0.0
  0
LINE
  5
ACD5
330
1ABC
100
AcDbEntity
  8
Visible
100
AcDbLine
 10
4349.837586674002
 20
1440.252736079031
 30
0.0
 11
4321.155391498865
 21
1440.25273607927
 31
0.0
  0
LINE
  5
ACD9
330
1ABC
100
AcDbEntity
  8
Visible
100
AcDbLine
 10
4326.830391498972
 20
1633.515236080307
 30
0.0
 11
4367.830391498972
 21
1633.515236080305
 31
0.0
  0
ARC
  5
ACDA
330
1ABC
100
AcDbEntity
  8
Visible
100
AcDbCircle
 10
4326.830391498973
 20
1658.515236080306
 30
0.0
 40
24.99999999999984
100
AcDbArc
 50
254.5141729380466
 51
270.0
  0
LINE
  5
ACDB
330
1ABC
100
AcDbEntity
  8
Visible
100
AcDbLine
 10
4367.830391498972
 20
1637.015236080303
 30
0.0
 11
4367.830391498972
 21
1633.515236080305
 31
0.0
  0
ARC
  5
ACDC
330
1ABC
100
AcDbEntity
  8
Visible
100
AcDbCircle
 10
4326.830391498973
 20
1658.515236080305
 30
0.0
 40
13.00000000000001
100
AcDbArc
 50
239.1053225872676
 51
270.0
  0
LINE
  5
ACDD
330
1ABC
100
AcDbEntity
  8
Visible
100
AcDbLine
 10
4367.830391498974
 20
1645.515236080304
 30
0.0
 11
4326.830391498973
 21
1645.515236080305
 31
0.0
  0
LINE
  5
ACDE
330
1ABC
100
AcDbEntity
  8
Visible
100
AcDbLine
 10
4367.830391498972
 20
1637.015236080303
 30
0.0
 11
4367.830391498974
 21
1645.515236080304
 31
0.0
  0
LINE
  5
ACE4
330
1ABC
100
AcDbEntity
  8
Visible
100
AcDbLine
 10
2201.130391498975
 20
1633.515236080405
 30
0.0
 11
2232.880391498896
 21
1633.515236080403
 31
0.0
  0
LINE
  5
ACE6
330
1ABC
100
AcDbEntity
  8
Visible
100
AcDbLine
 10
2263.630391498979
 20
1707.5152360804
 30
0.0
 11
2267.130391498978
 21
1707.515236080402
 31
0.0
  0
LINE
  5
ACE7
330
1ABC
100
AcDbEntity
  8
Visible
100
AcDbLine
 10
2201.130391498975
 20
1633.515236080405
 30
0.0
 11
2201.130391498975
 21
1637.015236080403
 31
0.0
  0
LINE
  5
ACE8
330
1ABC
100
AcDbEntity
  8
Visible
100
AcDbLine
 10
2255.130391498978
 20
1707.515236080401
 30
0.0
 11
2263.630391498979
 21
1707.5152360804
 31
0.0
  0
LINE
  5
ACE9
330
1ABC
100
AcDbEntity
  8
Visible
100
AcDbLine
 10
2255.130391498976
 20
1658.515236080401
 30
0.0
 11
2255.130391498978
 21
1707.515236080401
 31
0.0
  0
ARC
  5
ACEA
330
1ABC
100
AcDbEntity
  8
Visible
100
AcDbCircle
 10
2242.130391498976
 20
1658.515236080402
 30
0.0
 40
13.0
100
AcDbArc
 50
270.0
 51
0.0
  0
LINE
  5
ACEB
330
1ABC
100
AcDbEntity
  8
Visible
100
AcDbLine
 10
2201.130391498976
 20
1645.515236080403
 30
0.0
 11
2242.130391498976
 21
1645.515236080401
 31
0.0
  0
LINE
  5
ACEC
330
1ABC
100
AcDbEntity
  8
Visible
100
AcDbLine
 10
2201.130391498975
 20
1637.015236080403
 30
0.0
 11
2201.130391498976
 21
1645.515236080403
 31
0.0
  0
LINE
  5
ACF1
330
1ABC
100
AcDbEntity
  8
Visible
100
AcDbLine
 10
2232.880391498897
 20
1633.514756069809
 30
0.0
 11
2233.831391509724
 21
1633.514756069808
 31
0.0
  0
LINE
  5
ACF2
330
1ABC
100
AcDbEntity
  8
Visible
100
AcDbLine
 10
2232.880391498897
 20
1633.514756069809
 30
0.0
 11
2232.880391498897
 21
1637.014756069807
 31
0.0
  0
LINE
  5
ACF3
330
1ABC
100
AcDbEntity
  8
Visible
100
AcDbLine
 10
2286.880391498913
 20
1707.514756069794
 30
0.0
 11
2287.831391509741
 21
1707.514756069794
 31
0.0
  0
LINE
  5
ACF4
330
1ABC
100
AcDbEntity
  8
Visible
100
AcDbLine
 10
2286.880391498902
 20
1658.514756069795
 30
0.0
 11
2286.880391498916
 21
1707.514756069636
 31
0.0
  0
ARC
  5
ACF6
330
1ABC
100
AcDbEntity
  8
Visible
100
AcDbCircle
 10
2273.880391498902
 20
1658.514756069798
 30
0.0
 40
12.99999999999998
100
AcDbArc
 50
269.999999999987
 51
0.0
  0
LINE
  5
ACF7
330
1ABC
100
AcDbEntity
  8
Visible
100
AcDbLine
 10
2232.880391498898
 20
1645.514756069807
 30
0.0
 11
2233.831391509727
 21
1645.514756069807
 31
0.0
  0
LINE
  5
ACF8
330
1ABC
100
AcDbEntity
  8
Visible
100
AcDbLine
 10
2232.880391498897
 20
1637.014756069807
 30
0.0
 11
2232.880391498898
 21
1645.514756069807
 31
0.0
  0
LINE
  5
ACFD
330
1ABC
100
AcDbEntity
  8
Visible
100
AcDbLine
 10
2233.831391509724
 20
1633.51475606965
 30
0.0
 11
2274.831391509724
 21
1633.514756069641
 31
0.0
  0
ARC
  5
ACFE
330
1ABC
100
AcDbEntity
  8
Visible
100
AcDbCircle
 10
2274.83139150973
 20
1658.514756069641
 30
0.0
 40
24.99999999999994
100
AcDbArc
 50
269.999999999987
 51
0.0
  0
LINE
  5
ACFF
330
1ABC
100
AcDbEntity
  8
Visible
100
AcDbLine
 10
2299.831391509731
 20
1658.514756069635
 30
0.0
 11
2299.831391509742
 21
1707.514756069635
 31
0.0
  0
LINE
  5
AD00
330
1ABC
100
AcDbEntity
  8
Visible
100
AcDbLine
 10
2296.331391509741
 20
1707.514756069634
 30
0.0
 11
2299.831391509742
 21
1707.514756069635
 31
0.0
  0
LINE
  5
AD01
330
1ABC
100
AcDbEntity
  8
Visible
100
AcDbLine
 10
2233.831391509724
 20
1633.51475606965
 30
0.0
 11
2233.831391509724
 21
1637.014756069649
 31
0.0
  0
LINE
  5
AD02
330
1ABC
100
AcDbEntity
  8
Visible
100
AcDbLine
 10
2286.880391498916
 20
1707.514756069636
 30
0.0
 11
2296.331391509741
 21
1707.514756069634
 31
0.0
  0
LINE
  5
AD05
330
1ABC
100
AcDbEntity
  8
Visible
100
AcDbLine
 10
2233.831391509727
 20
1645.514756069649
 30
0.0
 11
2274.831391509727
 21
1645.514756069639
 31
0.0
  0
LINE
  5
AD06
330
1ABC
100
AcDbEntity
  8
Visible
100
AcDbLine
 10
2233.831391509724
 20
1637.014756069649
 30
0.0
 11
2233.831391509727
 21
1645.514756069649
 31
0.0
  0
LINE
  5
AD0C
330
1ABC
100
AcDbEntity
  8
Visible
100
AcDbLine
 10
4248.270391498954
 20
1633.514756069179
 30
0.0
 11
4289.270391498953
 21
1633.51475606917
 31
0.0
  0
LINE
  5
AD0D
330
1ABC
100
AcDbEntity
  8
Visible
100
AcDbLine
 10
4223.27039149897
 20
1707.514756069185
 30
0.0
 11
4226.770391498971
 21
1707.514756069183
 31
0.0
  0
LINE
  5
AD0E
330
1ABC
100
AcDbEntity
  8
Visible
100
AcDbLine
 10
4223.27039149897
 20
1707.514756069185
 30
0.0
 11
4223.270391498959
 21
1658.514756069185
 31
0.0
  0
ARC
  5
AD0F
330
1ABC
100
AcDbEntity
  8
Visible
100
AcDbCircle
 10
4248.27039149896
 20
1658.514756069179
 30
0.0
 40
24.99999999999994
100
AcDbArc
 50
180.0
 51
269.999999999987
  0
LINE
  5
AD10
330
1ABC
100
AcDbEntity
  8
Visible
100
AcDbLine
 10
4289.270391498955
 20
1637.014756069168
 30
0.0
 11
4289.270391498953
 21
1633.514756069169
 31
0.0
  0
LINE
  5
AD11
330
1ABC
100
AcDbEntity
  8
Visible
100
AcDbLine
 10
4235.27039149897
 20
1707.514756069181
 30
0.0
 11
4226.770391498971
 21
1707.514756069183
 31
0.0
  0
LINE
  5
AD12
330
1ABC
100
AcDbEntity
  8
Visible
100
AcDbLine
 10
4235.27039149896
 20
1658.514756069181
 30
0.0
 11
4235.27039149897
 21
1707.514756069181
 31
0.0
  0
ARC
  5
AD13
330
1ABC
100
AcDbEntity
  8
Visible
100
AcDbCircle
 10
4248.27039149896
 20
1658.514756069178
 30
0.0
 40
12.99999999999998
100
AcDbArc
 50
180.0
 51
269.999999999987
  0
LINE
  5
AD14
330
1ABC
100
AcDbEntity
  8
Visible
100
AcDbLine
 10
4289.270391498956
 20
1645.514756069168
 30
0.0
 11
4248.270391498956
 21
1645.514756069178
 31
0.0
  0
LINE
  5
AD15
330
1ABC
100
AcDbEntity
  8
Visible
100
AcDbLine
 10
4289.270391498955
 20
1637.014756069168
 30
0.0
 11
4289.270391498956
 21
1645.514756069168
 31
0.0
  0
ELLIPSE
  5
AD18
330
1ABC
100
AcDbEntity
  8
Visible
100
AcDbEllipse
 10
4344.32420141027
 20
1349.571742871404
 30
0.0
 11
-0.0492651785076225
 21
-9.999878646372993
 31
0.0
210
0.0
220
0.0
230
0.9999999999999998
 40
0.0001389303644717
 41
3.141592629854972
 42
6.592639274814377
  0
LINE
  5
AD19
330
1ABC
100
AcDbEntity
  8
Visible
100
AcDbLine
 10
4320.155391498827
 20
1359.690933744916
 30
0.0
 11
4344.373466588779
 21
1359.571621517777
 31
0.0
  0
LINE
  5
AD1A
330
1ABC
100
AcDbEntity
  8
Visible
100
AcDbLine
 10
4322.980391498884
 20
1339.676773452893
 30
0.0
 11
4344.274936231763
 21
1339.571864225031
 31
0.0
  0
ELLIPSE
  5
AD1B
330
1ABC
100
AcDbEntity
  8
Visible
100
AcDbEllipse
 10
4347.174166797042
 20
1349.557702295663
 30
0.0
 11
-0.0424419512877769
 21
-8.614895453850133
 31
0.0
210
0.0
220
0.0
230
0.9999999999999998
 40
0.0001389303644696
 41
0.0
 42
6.283185307177823
  0
ELLIPSE
  5
AD1C
330
1ABC
100
AcDbEntity
  8
Visible
100
AcDbEllipse
 10
4347.174166797042
 20
1349.557702295663
 30
0.0
 11
0.0469250825323361
 21
9.52488441067005
 31
0.0
210
0.0
220
0.0
230
1.0
 40
0.0001389303644696
 41
4.697282488183207
 42
9.42477801130283
  0
LINE
  5
AD1D
330
1ABC
100
AcDbEntity
  8
Visible
100
AcDbLine
 10
4347.12724171451
 20
1340.032817884993
 30
0.0
 11
4344.277276327742
 21
1340.046858460734
 31
0.0
  0
LINE
  5
AD1E
330
1ABC
100
AcDbEntity
  8
Visible
100
AcDbLine
 10
4347.221091879575
 20
1359.082586706333
 30
0.0
 11
4344.371126492799
 21
1359.096627282074
 31
0.0
  0
LINE
  5
AD1F
330
1ABC
100
AcDbEntity
  8
Visible
100
AcDbLine
 10
2264.620391498981
 20
1741.615236080687
 30
0.0
 11
2236.630391498981
 21
1741.615236080693
 31
0.0
  0
LINE
  5
AD20
330
1ABC
100
AcDbEntity
  8
Visible
100
AcDbLine
 10
2236.630391498981
 20
1741.615236080693
 30
0.0
 11
2236.630391498982
 21
1744.115236080693
 31
0.0
  0
LINE
  5
AD21
330
1ABC
100
AcDbEntity
  8
Visible
100
AcDbLine
 10
2264.620391498981
 20
1744.115236080687
 30
0.0
 11
2236.630391498982
 21
1744.115236080693
 31
0.0
  0
ARC
  5
AD22
330
1ABC
100
AcDbEntity
  8
Visible
100
AcDbCircle
 10
2264.620391498981
 20
1741.605236080688
 30
0.0
 40
0.01
100
AcDbArc
 50
0.0
 51
90.0
  0
ARC
  5
AD23
330
1ABC
100
AcDbEntity
  8
Visible
100
AcDbCircle
 10
2264.620391498981
 20
1741.605236080688
 30
0.0
 40
2.509999999999999
100
AcDbArc
 50
0.0
 51
89.99999999998697
  0
LINE
  5
AD24
330
1ABC
100
AcDbEntity
  8
Visible
100
AcDbLine
 10
2264.630391498981
 20
1741.605236080688
 30
0.0
 11
2264.630391498974
 21
1707.515236080404
 31
0.0
  0
LINE
  5
AD25
330
1ABC
100
AcDbEntity
  8
Visible
100
AcDbLine
 10
2267.130391498981
 20
1741.368522711372
 30
0.0
 11
2267.130391498981
 21
1741.605236080687
 31
0.0
  0
LINE
  5
AD26
330
1ABC
100
AcDbEntity
  8
Visible
100
AcDbLine
 10
4332.330391498982
 20
1741.615236080302
 30
0.0
 11
4304.340391498981
 21
1741.615236080309
 31
0.0
  0
LINE
  5
AD27
330
1ABC
100
AcDbEntity
  8
Visible
100
AcDbLine
 10
4332.330391498982
 20
1741.615236080302
 30
0.0
 11
4332.330391498983
 21
1744.115236080302
 31
0.0
  0
LINE
  5
AD28
330
1ABC
100
AcDbEntity
  8
Visible
100
AcDbLine
 10
4332.330391498983
 20
1744.115236080302
 30
0.0
 11
4304.340391498983
 21
1744.115236080309
 31
0.0
  0
ARC
  5
AD29
330
1ABC
100
AcDbEntity
  8
Visible
100
AcDbCircle
 10
4304.340391498981
 20
1741.605236080309
 30
0.0
 40
0.0100000000000006
100
AcDbArc
 50
90.0
 51
180.0
  0
ARC
  5
AD2A
330
1ABC
100
AcDbEntity
  8
Visible
100
AcDbCircle
 10
4304.340391498981
 20
1741.605236080309
 30
0.0
 40
2.509999999999998
100
AcDbArc
 50
89.99999999998697
 51
180.0
  0
LINE
  5
AD2B
330
1ABC
100
AcDbEntity
  8
Visible
100
AcDbLine
 10
4304.330391498978
 20
1726.215471880088
 30
0.0
 11
4304.330391498981
 21
1741.605236080309
 31
0.0
  0
LINE
  5
AD2C
330
1ABC
100
AcDbEntity
  8
Visible
100
AcDbLine
 10
4301.830391498982
 20
1741.605236080309
 30
0.0
 11
4301.830391498982
 21
1741.368522711343
 31
0.0
  0
LINE
  5
AD2D
330
1ABC
100
AcDbEntity
  8
Visible
100
AcDbLine
 10
2297.32139150975
 20
1741.61475606964
 30
0.0
 11
2269.33139150975
 21
1741.614756069646
 31
0.0
  0
LINE
  5
AD2E
330
1ABC
100
AcDbEntity
  8
Visible
100
AcDbLine
 10
2269.33139150975
 20
1741.614756069646
 30
0.0
 11
2269.331391509751
 21
1744.114756069646
 31
0.0
  0
LINE
  5
AD2F
330
1ABC
100
AcDbEntity
  8
Visible
100
AcDbLine
 10
2297.321391509751
 20
1744.11475606964
 30
0.0
 11
2269.331391509751
 21
1744.114756069646
 31
0.0
  0
ARC
  5
AD30
330
1ABC
100
AcDbEntity
  8
Visible
100
AcDbCircle
 10
2297.32139150975
 20
1741.60475606964
 30
0.0
 40
0.01
100
AcDbArc
 50
0.0
 51
90.0
  0
ARC
  5
AD31
330
1ABC
100
AcDbEntity
  8
Visible
100
AcDbCircle
 10
2297.32139150975
 20
1741.60475606964
 30
0.0
 40
2.510000000000002
100
AcDbArc
 50
0.0
 51
89.99999999998697
  0
LINE
  5
AD32
330
1ABC
100
AcDbEntity
  8
Visible
100
AcDbLine
 10
2297.33139150975
 20
1741.60475606964
 30
0.0
 11
2297.331391509742
 21
1707.514756069638
 31
0.0
  0
LINE
  5
AD33
330
1ABC
100
AcDbEntity
  8
Visible
100
AcDbLine
 10
2299.831391509747
 20
1731.190113969587
 30
0.0
 11
2299.83139150975
 21
1741.604756069639
 31
0.0
  0
LINE
  5
AD34
330
1ABC
100
AcDbEntity
  8
Visible
100
AcDbLine
 10
4252.821391509749
 20
1741.614756069182
 30
0.0
 11
4224.831391509749
 21
1741.614756069188
 31
0.0
  0
LINE
  5
AD35
330
1ABC
100
AcDbEntity
  8
Visible
100
AcDbLine
 10
4252.821391509749
 20
1741.614756069182
 30
0.0
 11
4252.821391509749
 21
1744.114756069182
 31
0.0
  0
LINE
  5
AD36
330
1ABC
100
AcDbEntity
  8
Visible
100
AcDbLine
 10
4252.821391509749
 20
1744.114756069182
 30
0.0
 11
4224.831391509749
 21
1744.114756069188
 31
0.0
  0
ARC
  5
AD37
330
1ABC
100
AcDbEntity
  8
Visible
100
AcDbCircle
 10
4224.831391509749
 20
1741.604756069188
 30
0.0
 40
0.0100000000000005
100
AcDbArc
 50
90.0
 51
180.0
  0
ARC
  5
AD38
330
1ABC
100
AcDbEntity
  8
Visible
100
AcDbCircle
 10
4224.831391509749
 20
1741.604756069188
 30
0.0
 40
2.509999999999993
100
AcDbArc
 50
89.99999999998697
 51
180.0
  0
LINE
  5
AD39
330
1ABC
100
AcDbEntity
  8
Visible
100
AcDbLine
 10
4224.821391509741
 20
1707.514756069187
 30
0.0
 11
4224.821391509749
 21
1741.604756069188
 31
0.0
  0
LINE
  5
AD3B
330
1ABC
100
AcDbEntity
  8
Visible
100
AcDbLine
 10
4222.321391509749
 20
1741.604756069189
 30
0.0
 11
4222.321391509747
 21
1731.190113969135
 31
0.0
  0
LINE
  5
AD42
330
1ABC
100
AcDbEntity
  8
Visible
100
AcDbLine
 10
4352.980391498879
 20
1322.402426446039
 30
0.0
 11
4352.980391498882
 21
1338.28242644604
 31
0.0
  0
LINE
  5
AD43
330
1ABC
100
AcDbEntity
  8
Visible
100
AcDbLine
 10
4352.980391498879
 20
1322.402426446039
 30
0.0
 11
4322.663912299271
 21
1322.402426446046
 31
0.0
  0
LINE
  5
AD44
330
1ABC
100
AcDbEntity
  8
Visible
100
AcDbLine
 10
4352.980391498882
 20
1338.28242644604
 30
0.0
 11
4322.980391498883
 21
1338.282426446046
 31
0.0
  0
LINE
  5
AD48
330
1ABC
100
AcDbEntity
  8
Visible
100
AcDbLine
 10
4322.980391498878
 20
1323.525236080154
 30
0.0
 11
4322.980391498884
 21
1346.375236080154
 31
0.0
  0
LINE
  5
AD49
330
1ABC
100
AcDbEntity
  8
Visible
100
AcDbLine
 10
4320.830391498879
 20
1323.525236080153
 30
0.0
 11
4322.980391498878
 21
1323.525236080154
 31
0.0
  0
LINE
  5
AD4A
330
1ABC
100
AcDbEntity
  8
Visible
100
AcDbLine
 10
4322.980391498884
 20
1346.375236080154
 30
0.0
 11
4320.830391498884
 21
1346.375236080153
 31
0.0
  0
LINE
  5
AD4B
330
1ABC
100
AcDbEntity
  8
Visible
100
AcDbLine
 10
2248.53049449889
 20
1346.375236080641
 30
0.0
 11
2246.38049449889
 21
1346.375236080643
 31
0.0
  0
LINE
  5
AD4C
330
1ABC
100
AcDbEntity
  8
Visible
100
AcDbLine
 10
2246.38049449889
 20
1346.375236080643
 30
0.0
 11
2246.380494498881
 21
1323.525236080643
 31
0.0
  0
LINE
  5
AD4D
330
1ABC
100
AcDbEntity
  8
Visible
100
AcDbLine
 10
2246.380494498881
 20
1323.525236080643
 30
0.0
 11
2248.530494498881
 21
1323.525236080641
 31
0.0
  0
ARC
  5
AD4F
330
1ABC
100
AcDbEntity
  8
Visible
100
AcDbCircle
 10
4320.830391498879
 20
1323.525236080155
 30
0.0
 40
2.149999999999941
100
AcDbArc
 50
269.999999999987
 51
0.0
  0
LINE
  5
AD50
330
1ABC
100
AcDbEntity
  8
Visible
100
AcDbLine
 10
4320.19601076688
 20
1321.375236080155
 30
0.0
 11
4219.921391509719
 21
1321.375236080179
 31
0.0
  0
LINE
  5
AD51
330
1ABC
100
AcDbEntity
  8
Visible
100
AcDbLine
 10
2302.231391509721
 20
1321.375236080631
 30
0.0
 11
2249.16487523088
 21
1321.375236080643
 31
0.0
  0
LINE
  5
AD53
330
1ABC
100
AcDbEntity
  8
Visible
100
AcDbLine
 10
4320.830391498879
 20
1321.375236080155
 30
0.0
 11
4320.19601076688
 21
1321.375236080155
 31
0.0
  0
ARC
  5
AD55
330
1ABC
100
AcDbEntity
  8
Visible
100
AcDbCircle
 10
2248.530494498881
 20
1323.525236080643
 30
0.0
 40
2.149999999999903
100
AcDbArc
 50
180.0
 51
269.999999999987
  0
LINE
  5
AD56
330
1ABC
100
AcDbEntity
  8
Visible
100
AcDbLine
 10
2249.16487523088
 20
1321.375236080643
 30
0.0
 11
2248.53049449888
 21
1321.375236080643
 31
0.0
  0
LINE
  5
AD5E
330
1ABC
100
AcDbEntity
  8
Visible
100
AcDbLine
 10
4320.155391498824
 20
1346.375236080154
 30
0.0
 11
4320.830391498884
 21
1346.375236080153
 31
0.0
  0
LINE
  5
AD5F
330
1ABC
100
AcDbEntity
  8
Visible
100
AcDbLine
 10
4320.830391498879
 20
1323.525236080153
 30
0.0
 11
4302.144391498879
 21
1323.525236080158
 31
0.0
  0
LINE
  5
AD60
330
1ABC
100
AcDbEntity
  8
Visible
100
AcDbLine
 10
4302.144391498879
 20
1323.525236080158
 30
0.0
 11
4302.144391498883
 21
1337.625471880021
 31
0.0
  0
LINE
  5
AD61
330
1ABC
100
AcDbEntity
  8
Visible
100
AcDbLine
 10
2267.216494498881
 20
1323.525236080634
 30
0.0
 11
2248.530494498881
 21
1323.525236080641
 31
0.0
  0
LINE
  5
AD62
330
1ABC
100
AcDbEntity
  8
Visible
100
AcDbLine
 10
2248.53049449889
 20
1346.375236080641
 30
0.0
 11
2267.21649449889
 21
1346.375236080634
 31
0.0
  0
LINE
  5
AD63
330
1ABC
100
AcDbEntity
  8
Visible
100
AcDbLine
 10
2267.21649449889
 20
1346.375236080634
 30
0.0
 11
2267.216494498881
 21
1323.525236080634
 31
0.0
  0
LINE
  5
AD65
330
1ABC
100
AcDbEntity
  8
Visible
100
AcDbLine
 10
2267.13039149898
 20
1724.995236080238
 30
0.0
 11
2267.130391498962
 21
1645.514756069825
 31
0.0
  0
LINE
  5
AD66
330
1ABC
100
AcDbEntity
  8
Visible
100
AcDbLine
 10
2267.130391498961
 20
1633.514756069772
 30
0.0
 11
2267.130391498908
 21
1346.375236080636
 31
0.0
  0
LINE
  5
AD72
330
1ABC
100
AcDbEntity
  8
Visible
100
AcDbLine
 10
2268.130391498978
 20
1741.615236080237
 30
0.0
 11
2269.33139150975
 21
1741.615236080237
 31
0.0
  0
LINE
  5
AD73
330
1ABC
100
AcDbEntity
  8
Visible
100
AcDbLine
 10
2299.831369631045
 20
1741.615236080237
 30
0.0
 11
2301.21689149898
 21
1741.615236080237
 31
0.0
  0
LINE
  5
AD75
330
1ABC
100
AcDbEntity
  8
Visible
100
AcDbLine
 10
4252.821391509746
 20
1741.615236080212
 30
0.0
 11
4300.830391498974
 21
1741.615236080212
 31
0.0
  0
LINE
  5
AD78
330
1ABC
100
AcDbEntity
  8
Visible
100
AcDbLine
 10
4302.980391498974
 20
1726.215471880022
 30
0.0
 11
4302.980391498973
 21
1739.465236080212
 31
0.0
  0
ARC
  5
AD79
330
1ABC
100
AcDbEntity
  8
Visible
100
AcDbCircle
 10
4300.830391498974
 20
1739.465236080212
 30
0.0
 40
2.150000000000032
100
AcDbArc
 50
0.0
 51
90.0
  0
ARC
  5
AD7C
330
1ABC
100
AcDbEntity
  8
Visible
100
AcDbCircle
 10
2268.130391498978
 20
1739.465236080238
 30
0.0
 40
2.149999999999997
100
AcDbArc
 50
90.0
 51
180.0
  0
LINE
  5
AD7E
330
1ABC
100
AcDbEntity
  8
Visible
100
AcDbLine
 10
2265.980391498978
 20
1739.465236080238
 30
0.0
 11
2265.980391498978
 21
1724.995236080238
 31
0.0
  0
LINE
  5
AD7F
330
1ABC
100
AcDbEntity
  8
Visible
100
AcDbLine
 10
2267.130391498977
 20
1724.995236080238
 30
0.0
 11
2265.980391498978
 21
1724.995236080238
 31
0.0
  0
LINE
  5
AD80
330
1ABC
100
AcDbEntity
  8
Visible
100
AcDbLine
 10
3424.476590606432
 20
1362.05707242755
 30
0.0
 11
3424.476590606472
 21
1533.675113980164
 31
0.0
  0
LINE
  5
AD84
330
1ABC
100
AcDbEntity
  8
Visible
100
AcDbLine
 10
2861.886590606433
 20
1361.557072427685
 30
0.0
 11
2861.886590606474
 21
1533.675113980294
 31
0.0
  0
LINE
  5
AD88
330
1ABC
100
AcDbEntity
  8
Visible
100
AcDbLine
 10
3987.066192412888
 20
1362.057072427416
 30
0.0
 11
3987.066192412928
 21
1533.675113980032
 31
0.0
  0
LINE
  5
AD8C
330
1ABC
100
AcDbEntity
  8
Visible
100
AcDbLine
 10
3097.676590606474
 20
1533.675113980241
 30
0.0
 11
3097.676590606434
 21
1362.057072427626
 31
0.0
  0
LINE
  5
AD8F
330
1ABC
100
AcDbEntity
  8
Visible
100
AcDbLine
 10
2535.086590606475
 20
1533.675113980368
 30
0.0
 11
2535.086590606435
 21
1361.557072427761
 31
0.0
  0
LINE
  5
AD92
330
1ABC
100
AcDbEntity
  8
Visible
100
AcDbLine
 10
3660.266192412929
 20
1533.675113980109
 30
0.0
 11
3660.266192412889
 21
1362.057072427492
 31
0.0
  0
LINE
  5
AD95
330
1ABC
100
AcDbEntity
  8
Visible
100
AcDbLine
 10
3097.676590606434
 20
1362.057072427626
 30
0.0
 11
3424.476590606432
 21
1362.05707242755
 31
0.0
  0
LINE
  5
AD9D
330
1ABC
100
AcDbEntity
  8
Visible
100
AcDbLine
 10
2535.086590606435
 20
1361.557072427761
 30
0.0
 11
2861.886590606433
 21
1361.557072427685
 31
0.0
  0
LINE
  5
ADA5
330
1ABC
100
AcDbEntity
  8
Visible
100
AcDbLine
 10
3660.266192412889
 20
1362.057072427492
 30
0.0
 11
3987.066192412888
 21
1362.057072427416
 31
0.0
  0
LINE
  5
AE6D
330
1ABC
100
AcDbEntity
  8
Visible
100
AcDbLine
 10
2884.731391509666
 20
1331.37511398032
 30
0.0
 11
2884.731391509666
 21
1332.325113980311
 31
0.0
  0
LINE
  5
AE70
330
1ABC
100
AcDbEntity
  8
Visible
100
AcDbLine
 10
3447.321391509665
 20
1331.375113980188
 30
0.0
 11
3637.321391509665
 21
1331.375113980144
 31
0.0
  0
LINE
  5
AE71
330
1ABC
100
AcDbEntity
  8
Visible
100
AcDbLine
 10
3637.321391509665
 20
1332.325113980134
 30
0.0
 11
3637.321391509665
 21
1331.375113980144
 31
0.0
  0
LINE
  5
AE72
330
1ABC
100
AcDbEntity
  8
Visible
100
AcDbLine
 10
3447.321391509666
 20
1332.325113980179
 30
0.0
 11
3447.321391509665
 21
1331.375113980188
 31
0.0
  0
LINE
  5
AE7B
330
1ABC
100
AcDbEntity
  8
Visible
100
AcDbLine
 10
3077.031391509655
 20
1337.475113980374
 30
0.0
 11
3455.621391509654
 21
1337.475113980351
 31
0.0
  0
LINE
  5
AE81
330
1ABC
100
AcDbEntity
  8
Visible
100
AcDbLine
 10
3455.621391509654
 20
1337.475113980351
 30
0.0
 11
3455.621391509654
 21
1338.725098479602
 31
0.0
  0
LINE
  5
AE84
330
1ABC
100
AcDbEntity
  8
Visible
100
AcDbLine
 10
3639.621391509654
 20
1338.725098479559
 30
0.0
 11
3639.621391509654
 21
1337.47511398034
 31
0.0
  0
LINE
  5
AE85
330
1ABC
100
AcDbEntity
  8
Visible
100
AcDbLine
 10
2893.031391509656
 20
1337.475113980386
 30
0.0
 11
2893.031391509656
 21
1338.725098479734
 31
0.0
  0
LINE
  5
AE88
330
1ABC
100
AcDbEntity
  8
Visible
100
AcDbLine
 10
3077.031391509655
 20
1338.725098479691
 30
0.0
 11
3077.031391509655
 21
1337.475113980374
 31
0.0
  0
LINE
  5
AE8B
330
1ABC
100
AcDbEntity
  8
Visible
100
AcDbLine
 10
2294.880391498758
 20
1332.725113980427
 30
0.0
 11
2294.880391498831
 21
1643.580312677367
 31
0.0
  0
LINE
  5
AE8C
330
1ABC
100
AcDbEntity
  8
Visible
100
AcDbLine
 10
2298.880391498757
 20
1332.725113980426
 30
0.0
 11
2294.880391498758
 21
1332.725113980427
 31
0.0
  0
LINE
  5
AE8D
330
1ABC
100
AcDbEntity
  8
Visible
100
AcDbLine
 10
2298.880391498832
 20
1651.684997690009
 30
0.0
 11
2298.880391498757
 21
1332.725113980426
 31
0.0
  0
LINE
  5
AE95
330
1ABC
100
AcDbEntity
  8
Visible
100
AcDbLine
 10
2299.331391509747
 20
1731.190113969585
 30
0.0
 11
4222.321391509747
 21
1731.190113969135
 31
0.0
  0
LINE
  5
AE97
330
1ABC
100
AcDbEntity
  8
Visible
100
AcDbLine
 10
2299.331391509741
 20
1707.514756069636
 30
0.0
 11
2299.331391509747
 21
1731.190113969585
 31
0.0
  0
LINE
  5
AEA3
330
1ABC
100
AcDbEntity
  8
Visible
100
AcDbLine
 10
2302.231391509719
 20
1320.325113980606
 30
0.0
 11
2310.667391509717
 21
1320.3251139806
 31
0.0
  0
LINE
  5
AEA5
330
1ABC
100
AcDbEntity
  8
Visible
100
AcDbLine
 10
2310.667391509718
 20
1321.4751139806
 30
0.0
 11
2302.231391509719
 21
1321.475113980606
 31
0.0
  0
LINE
  5
AEA6
330
1ABC
100
AcDbEntity
  8
Visible
100
AcDbLine
 10
2302.231391509719
 20
1321.475113980606
 30
0.0
 11
2302.231391509719
 21
1320.325113980606
 31
0.0
  0
LINE
  5
AEA7
330
1ABC
100
AcDbEntity
  8
Visible
100
AcDbLine
 10
4219.921391509717
 20
1321.475113980157
 30
0.0
 11
4211.485391509715
 21
1321.475113980155
 31
0.0
  0
LINE
  5
AEA8
330
1ABC
100
AcDbEntity
  8
Visible
100
AcDbLine
 10
4211.485391509715
 20
1320.325113980155
 30
0.0
 11
4219.921391509717
 21
1320.325113980157
 31
0.0
  0
LINE
  5
AEA9
330
1ABC
100
AcDbEntity
  8
Visible
100
AcDbLine
 10
4219.921391509717
 20
1320.325113980157
 30
0.0
 11
4219.921391509717
 21
1321.475113980157
 31
0.0
  0
LINE
  5
AEAB
330
1ABC
100
AcDbEntity
  8
Visible
100
AcDbLine
 10
2310.667391509718
 20
1321.4751139806
 30
0.0
 11
4211.485391509715
 21
1321.475113980155
 31
0.0
  0
LINE
  5
AEAC
330
1ABC
100
AcDbEntity
  8
Visible
100
AcDbLine
 10
2310.667391509718
 20
1320.3251139806
 30
0.0
 11
4211.485391509715
 21
1320.325113980155
 31
0.0
  0
LINE
  5
AEBC
330
1ABC
100
AcDbEntity
  8
Visible
100
AcDbLine
 10
3660.266192412929
 20
1533.675113980109
 30
0.0
 11
3987.066192412928
 21
1533.675113980032
 31
0.0
  0
LINE
  5
AEBF
330
1ABC
100
AcDbEntity
  8
Visible
100
AcDbLine
 10
2533.086391509701
 20
1533.675113980373
 30
0.0
 11
2863.886391509701
 21
1533.675113980295
 31
0.0
  0
LINE
  5
AEC2
330
1ABC
100
AcDbEntity
  8
Visible
100
AcDbLine
 10
3097.676590606474
 20
1533.675113980241
 30
0.0
 11
3424.476590606472
 21
1533.675113980164
 31
0.0
  0
LINE
  5
AEC3
330
1ABC
100
AcDbEntity
  8
Visible
100
AcDbLine
 10
2302.231391509719
 20
1321.475113980606
 30
0.0
 11
2302.23139150972
 21
1322.725113980607
 31
0.0
  0
LINE
  5
AEC4
330
1ABC
100
AcDbEntity
  8
Visible
100
AcDbLine
 10
4219.921391509717
 20
1321.475113980157
 30
0.0
 11
4219.921391509718
 21
1322.725113980158
 31
0.0
  0
LINE
  5
AEC5
330
1ABC
100
AcDbEntity
  8
Visible
100
AcDbLine
 10
4219.921391509717
 20
1322.725113980158
 30
0.0
 11
4219.921391509719
 21
1332.325113980103
 31
0.0
  0
LINE
  5
AEC6
330
1ABC
100
AcDbEntity
  8
Visible
100
AcDbLine
 10
2302.231391509719
 20
1322.725113980607
 30
0.0
 11
2302.231391509722
 21
1332.325113980551
 31
0.0
  0
ARC
  5
AF3F
330
1ABC
100
AcDbEntity
  8
Visible
100
AcDbCircle
 10
4101.646391509639
 20
1342.275098479438
 30
0.0
 40
2.399999999999975
100
AcDbArc
 50
269.999999999987
 51
0.0
  0
ARC
  5
AF40
330
1ABC
100
AcDbEntity
  8
Visible
100
AcDbCircle
 10
4101.646391509639
 20
1342.275098479438
 30
0.0
 40
1.24999999999996
100
AcDbArc
 50
269.999999999987
 51
0.0
  0
ARC
  5
AF41
330
1ABC
100
AcDbEntity
  8
Visible
100
AcDbCircle
 10
2420.956391509661
 20
1342.275098479832
 30
0.0
 40
2.400000000000082
100
AcDbArc
 50
180.0
 51
269.999999999987
  0
ARC
  5
AF42
330
1ABC
100
AcDbEntity
  8
Visible
100
AcDbCircle
 10
2420.956391509661
 20
1342.275098479832
 30
0.0
 40
1.250000000000137
100
AcDbArc
 50
180.0
 51
269.999999999987
  0
LINE
  5
AF43
330
1ABC
100
AcDbEntity
  8
Visible
100
AcDbLine
 10
4078.210391509639
 20
1341.025098479443
 30
0.0
 11
4101.646391509639
 21
1341.025098479438
 31
0.0
  0
LINE
  5
AF44
330
1ABC
100
AcDbEntity
  8
Visible
100
AcDbLine
 10
4078.210391509639
 20
1341.025098479443
 30
0.0
 11
4078.210391509639
 21
1339.875098479444
 31
0.0
  0
LINE
  5
AF45
330
1ABC
100
AcDbEntity
  8
Visible
100
AcDbLine
 10
4078.210391509639
 20
1339.875098479444
 30
0.0
 11
4101.646391509639
 21
1339.875098479438
 31
0.0
  0
LINE
  5
AF46
330
1ABC
100
AcDbEntity
  8
Visible
100
AcDbLine
 10
2444.392391509661
 20
1341.025098479827
 30
0.0
 11
2420.956391509661
 21
1341.025098479832
 31
0.0
  0
LINE
  5
AF47
330
1ABC
100
AcDbEntity
  8
Visible
100
AcDbLine
 10
2420.956391509661
 20
1339.875098479832
 30
0.0
 11
2444.39239150966
 21
1339.875098479828
 31
0.0
  0
LINE
  5
AF48
330
1ABC
100
AcDbEntity
  8
Visible
100
AcDbLine
 10
2444.392391509661
 20
1341.025098479827
 30
0.0
 11
2444.39239150966
 21
1339.875098479828
 31
0.0
  0
ARC
  5
AF49
330
1ABC
100
AcDbEntity
  8
Visible
100
AcDbCircle
 10
2420.956391509708
 20
1598.968098479831
 30
0.0
 40
2.399999999999698
100
AcDbArc
 50
89.99999999998697
 51
180.0
  0
ARC
  5
AF4A
330
1ABC
100
AcDbEntity
  8
Visible
100
AcDbCircle
 10
2420.956391509708
 20
1598.96809847983
 30
0.0
 40
1.250000000000279
100
AcDbArc
 50
90.0
 51
180.0
  0
LINE
  5
AF4B
330
1ABC
100
AcDbEntity
  8
Visible
100
AcDbLine
 10
2419.706391509661
 20
1342.275098479832
 30
0.0
 11
2419.706391509707
 21
1598.968098479831
 31
0.0
  0
LINE
  5
AF4C
330
1ABC
100
AcDbEntity
  8
Visible
100
AcDbLine
 10
2418.556391509708
 20
1598.968098479831
 30
0.0
 11
2418.556391509661
 21
1342.275098479832
 31
0.0
  0
ARC
  5
AF4D
330
1ABC
100
AcDbEntity
  8
Visible
100
AcDbCircle
 10
4101.646391509699
 20
1598.968098479437
 30
0.0
 40
2.399999999999991
100
AcDbArc
 50
0.0
 51
89.99999999998697
  0
ARC
  5
AF4E
330
1ABC
100
AcDbEntity
  8
Visible
100
AcDbCircle
 10
4101.646391509699
 20
1598.968098479437
 30
0.0
 40
1.249999999999995
100
AcDbArc
 50
0.0
 51
89.99999999998697
  0
LINE
  5
AF4F
330
1ABC
100
AcDbEntity
  8
Visible
100
AcDbLine
 10
4102.896391509639
 20
1342.275098479438
 30
0.0
 11
4102.896391509699
 21
1598.968098479437
 31
0.0
  0
LINE
  5
AF50
330
1ABC
100
AcDbEntity
  8
Visible
100
AcDbLine
 10
4104.046391509639
 20
1342.275098479438
 30
0.0
 11
4104.046391509699
 21
1598.968098479437
 31
0.0
  0
LINE
  5
AF51
330
1ABC
100
AcDbEntity
  8
Visible
100
AcDbLine
 10
2420.956391509708
 20
1600.218098479831
 30
0.0
 11
4101.646391509699
 21
1600.218098479437
 31
0.0
  0
LINE
  5
AF52
330
1ABC
100
AcDbEntity
  8
Visible
100
AcDbLine
 10
4101.646391509699
 20
1601.368098479437
 30
0.0
 11
2420.956391509708
 21
1601.368098479831
 31
0.0
  0
LINE
  5
AF65
330
1ABC
100
AcDbEntity
  8
Visible
100
AcDbLine
 10
4101.421391509642
 20
1339.875098479439
 30
0.0
 11
4101.421391509642
 21
1338.725098479439
 31
0.0
  0
LINE
  5
AF66
330
1ABC
100
AcDbEntity
  8
Visible
100
AcDbLine
 10
2420.731391509661
 20
1339.875098479832
 30
0.0
 11
2420.731391509661
 21
1338.725098479832
 31
0.0
  0
LINE
  5
AF67
330
1ABC
100
AcDbEntity
  8
Visible
100
AcDbLine
 10
2420.731391509661
 20
1338.725098479832
 30
0.0
 11
4101.421391509642
 21
1338.725098479439
 31
0.0
  0
LINE
  5
AF68
330
1ABC
100
AcDbEntity
  8
Visible
100
AcDbLine
 10
4101.421391509642
 20
1339.875098479439
 30
0.0
 11
2420.731391509661
 21
1339.875098479832
 31
0.0
  0
LINE
  5
AF8E
330
1ABC
100
AcDbEntity
  8
Visible
100
AcDbLine
 10
4220.933891498975
 20
1743.1901139693
 30
0.0
 11
4212.497891498975
 21
1743.190113969299
 31
0.0
  0
LINE
  5
AF90
330
1ABC
100
AcDbEntity
  8
Visible
100
AcDbLine
 10
4212.497891498973
 20
1742.040113969299
 30
0.0
 11
4220.933891498975
 21
1742.0401139693
 31
0.0
  0
LINE
  5
AF91
330
1ABC
100
AcDbEntity
  8
Visible
100
AcDbLine
 10
4220.933891498975
 20
1742.0401139693
 30
0.0
 11
4220.933891498975
 21
1743.1901139693
 31
0.0
  0
LINE
  5
AF92
330
1ABC
100
AcDbEntity
  8
Visible
100
AcDbLine
 10
2301.21689149898
 20
1742.040113969748
 30
0.0
 11
2309.652891498979
 21
1742.040113969743
 31
0.0
  0
LINE
  5
AF93
330
1ABC
100
AcDbEntity
  8
Visible
100
AcDbLine
 10
2309.652891498979
 20
1743.190113969743
 30
0.0
 11
2301.216891498981
 21
1743.190113969747
 31
0.0
  0
LINE
  5
AF94
330
1ABC
100
AcDbEntity
  8
Visible
100
AcDbLine
 10
2301.216891498981
 20
1743.190113969747
 30
0.0
 11
2301.21689149898
 21
1742.040113969748
 31
0.0
  0
LINE
  5
AF96
330
1ABC
100
AcDbEntity
  8
Visible
100
AcDbLine
 10
4212.497891498973
 20
1742.040113969299
 30
0.0
 11
2309.652891498979
 21
1742.040113969743
 31
0.0
  0
LINE
  5
AF97
330
1ABC
100
AcDbEntity
  8
Visible
100
AcDbLine
 10
4212.497891498973
 20
1743.190113969299
 30
0.0
 11
2309.652891498979
 21
1743.190113969743
 31
0.0
  0
LINE
  5
AFA3
330
1ABC
100
AcDbEntity
  8
Visible
100
AcDbLine
 10
4220.933891498975
 20
1742.0401139693
 30
0.0
 11
4220.933891498975
 21
1740.7901139693
 31
0.0
  0
LINE
  5
AFA4
330
1ABC
100
AcDbEntity
  8
Visible
100
AcDbLine
 10
2301.21689149898
 20
1742.040113969748
 30
0.0
 11
2301.21689149898
 21
1740.790113969748
 31
0.0
  0
LINE
  5
AFA5
330
1ABC
100
AcDbEntity
  8
Visible
100
AcDbLine
 10
2301.21689149898
 20
1740.790113969748
 30
0.0
 11
2301.216891498977
 21
1731.190113969711
 31
0.0
  0
LINE
  5
AFA6
330
1ABC
100
AcDbEntity
  8
Visible
100
AcDbLine
 10
4220.933891498975
 20
1740.7901139693
 30
0.0
 11
4220.933891498972
 21
1731.190113969262
 31
0.0
  0
LINE
  5
AFDB
330
1ABC
100
AcDbEntity
  8
Visible
100
AcDbLine
 10
4223.321391509727
 20
1656.918698571068
 30
0.0
 11
4223.321391509652
 21
1332.325113979976
 31
0.0
  0
LINE
  5
AFDF
330
1ABC
100
AcDbEntity
  8
Visible
100
AcDbLine
 10
4103.821391509715
 20
1599.982679673803
 30
0.0
 11
4103.821391509716
 21
1601.725113980003
 31
0.0
  0
LINE
  5
AFE0
330
1ABC
100
AcDbEntity
  8
Visible
100
AcDbLine
 10
2418.380391498758
 20
1336.325113980398
 30
0.0
 11
2298.880391498757
 21
1336.325113980426
 31
0.0
  0
LINE
  5
AFE1
330
1ABC
100
AcDbEntity
  8
Visible
100
AcDbLine
 10
2298.880391498757
 20
1336.325113980426
 30
0.0
 11
2298.88039149882
 21
1601.325113980426
 31
0.0
  0
LINE
  5
AFE3
330
1ABC
100
AcDbEntity
  8
Visible
100
AcDbLine
 10
2418.38039149882
 20
1601.325113980398
 30
0.0
 11
2418.38039149876
 21
1350.475113980417
 31
0.0
  0
LINE
  5
B03D
330
1ABC
100
AcDbEntity
  8
Visible
100
AcDbLine
 10
2299.270391498817
 20
1332.325113980427
 30
0.0
 11
4223.321391509653
 21
1332.325113979976
 31
0.0
  0
LINE
  5
B03F
330
1ABC
100
AcDbEntity
  8
Visible
100
AcDbLine
 10
2299.270391498817
 20
1336.325113980427
 30
0.0
 11
2299.270391498817
 21
1332.325113980427
 31
0.0
  0
LINE
  5
B3F8
330
1ABC
100
AcDbEntity
  8
Visible
100
AcDbLine
 10
5117.179373642262
 20
1723.593720437888
 30
0.0
 11
5117.179373642397
 21
1339.575471880019
 31
0.0
  0
SPLINE
  5
B3FE
330
1ABC
100
AcDbEntity
  8
Visible
100
AcDbSpline
210
0.0
220
0.0
230
1.0
 70
     8
 71
     3
 72
    11
 73
     7
 74
     0
 42
0.0000000001
 43
0.0000000001
 40
0.0
 40
0.0
 40
0.0
 40
0.0
 40
1.184929335204818
 40
1.184929335204818
 40
1.184929335204818
 40
1.570796326794896
 40
1.570796326794896
 40
1.570796326794896
 40
1.570796326794896
 10
5115.229373642396
 20
1337.625471880016
 30
0.0
 10
5115.99957771028
 20
1337.625471880016
 30
0.0
 10
5116.746119028659
 20
1338.12799209106
 30
0.0
 10
5117.03599497406
 20
1338.841564962226
 30
0.0
 10
5117.130391792219
 20
1339.07393680829
 30
0.0
 10
5117.179373642398
 20
1339.324658335485
 30
0.0
 10
5117.179373642398
 20
1339.575471880018
 30
0.0
  0
LINE
  5
B3FF
330
1ABC
100
AcDbEntity
  8
Visible
100
AcDbLine
 10
5117.179373642398
 20
1339.575471880018
 30
0.0
 11
5117.179373642397
 21
1340.247223322144
 31
0.0
  0
LINE
  5
B400
330
1ABC
100
AcDbEntity
  8
Visible
100
AcDbLine
 10
5117.179373642262
 20
1723.593720437888
 30
0.0
 11
5117.179373642262
 21
1724.265471880015
 31
0.0
  0
SPLINE
  5
B401
330
1ABC
100
AcDbEntity
  8
Visible
100
AcDbSpline
210
0.0
220
0.0
230
1.0
 70
     8
 71
     3
 72
    11
 73
     7
 74
     0
 42
0.0000000001
 43
0.0000000001
 40
0.0
 40
0.0
 40
0.0
 40
0.0
 40
1.184929335205182
 40
1.184929335205182
 40
1.184929335205182
 40
1.570796326794896
 40
1.570796326794896
 40
1.570796326794896
 40
1.570796326794896
 10
5117.179373642262
 20
1724.265471880015
 30
0.0
 10
5117.179373642262
 20
1725.035675947898
 30
0.0
 10
5116.676853431218
 20
1725.782217266277
 30
0.0
 10
5115.963280560052
 20
1726.072093211677
 30
0.0
 10
5115.730908713989
 20
1726.166490029835
 30
0.0
 10
5115.480187186795
 20
1726.215471880014
 30
0.0
 10
5115.229373642262
 20
1726.215471880014
 30
0.0
  0
LINE
  5
B40D
330
1ABC
100
AcDbEntity
  8
Visible
100
AcDbLine
 10
5090.838595260392
 20
1328.614458653072
 30
0.0
 11
5101.167878814294
 21
1335.918365098844
 31
0.0
  0
LINE
  5
B40E
330
1ABC
100
AcDbEntity
  8
Visible
100
AcDbLine
 10
5090.838595260392
 20
1327.942707210945
 30
0.0
 11
5090.838595260392
 21
1328.614458653072
 31
0.0
  0
SPLINE
  5
B413
330
1ABC
100
AcDbEntity
  8
Visible
100
AcDbSpline
210
0.0
220
0.0
230
1.0
 70
     8
 71
     3
 72
    11
 73
     7
 74
     0
 42
0.0000000001
 43
0.0000000001
 40
0.0
 40
0.0
 40
0.0
 40
0.0
 40
0.8799690835599387
 40
0.8799690835599387
 40
0.8799690835599387
 40
1.0
 40
1.0
 40
1.0
 40
1.0
 10
5101.167878814294
 20
1335.918365098844
 30
0.0
 10
5102.147895627036
 20
1336.407065052276
 30
0.0
 10
5103.127912439777
 20
1337.392878858733
 30
0.0
 10
5104.107929252519
 20
1337.585745240012
 30
0.0
 10
5104.241607035475
 20
1337.612052901188
 30
0.0
 10
5104.375284818431
 20
1337.625471880031
 30
0.0
 10
5104.508962601387
 20
1337.625471880031
 30
0.0
  0
LINE
  5
B415
330
1ABC
100
AcDbEntity
  8
Visible
100
AcDbLine
 10
4823.78915202481
 20
1327.942707210851
 30
0.0
 11
5090.838595260392
 21
1327.942707210945
 31
0.0
  0
LINE
  5
B417
330
1ABC
100
AcDbEntity
  8
Visible
100
AcDbLine
 10
5090.838595260251
 20
1735.898236549104
 30
0.0
 11
4823.789152024676
 21
1735.89823654901
 31
0.0
  0
LINE
  5
B41D
330
1ABC
100
AcDbEntity
  8
Visible
100
AcDbLine
 10
4823.78915202481
 20
1327.942707210851
 30
0.0
 11
4810.308293089347
 21
1337.47511398033
 31
0.0
  0
LINE
  5
B41F
330
1ABC
100
AcDbEntity
  8
Visible
100
AcDbLine
 10
5115.229373642396
 20
1337.625471880016
 30
0.0
 11
4797.448373642424
 21
1337.625471879904
 31
0.0
  0
LINE
  5
B420
330
1ABC
100
AcDbEntity
  8
Visible
100
AcDbLine
 10
4797.448373642288
 20
1726.215471879903
 30
0.0
 11
5115.229373642262
 21
1726.215471880014
 31
0.0
  0
LINE
  5
B426
330
1ABC
100
AcDbEntity
  8
Visible
100
AcDbLine
 10
5090.838595260251
 20
1735.898236549104
 30
0.0
 11
5104.53209237656
 21
1726.215471880011
 31
0.0
  0
LINE
  5
B42D
330
1ABC
100
AcDbEntity
  8
Visible
100
AcDbLine
 10
4810.095654908367
 20
1726.215471879907
 30
0.0
 11
4823.789152024676
 21
1735.89823654901
 31
0.0
  0
LINE
  5
B431
330
1ABC
100
AcDbEntity
  8
Visible
100
AcDbLine
 10
4797.448373642424
 20
1337.625471879904
 30
0.0
 11
4797.448373642288
 21
1726.215471879903
 31
0.0
  0
LINE
  5
B441
330
1ABC
100
AcDbEntity
  8
Visible
100
AcDbLine
 10
5493.885373642716
 20
1368.415236080646
 30
0.0
 11
5436.035373642717
 21
1368.415236080626
 31
0.0
  0
LINE
  5
B442
330
1ABC
100
AcDbEntity
  8
Visible
100
AcDbLine
 10
5493.885373642715
 20
1369.565236080646
 30
0.0
 11
5493.885373642716
 21
1368.415236080646
 31
0.0
  0
LINE
  5
B444
330
1ABC
100
AcDbEntity
  8
Visible
100
AcDbLine
 10
5435.035373642716
 20
1367.415236080625
 30
0.0
 11
5435.035373642724
 21
1346.375236080241
 31
0.0
  0
ARC
  5
B445
330
1ABC
100
AcDbEntity
  8
Visible
100
AcDbCircle
 10
5436.035373642717
 20
1367.415236080626
 30
0.0
 40
0.9999999999999941
100
AcDbArc
 50
90.00000000003907
 51
180.0
  0
CIRCLE
  5
B446
330
1ABC
100
AcDbEntity
  8
Visible
100
AcDbCircle
 10
5406.218462036385
 20
1419.252736080293
 30
0.0
 40
15.9999999999999
  0
LINE
  5
B448
330
1ABC
100
AcDbEntity
  8
Visible
100
AcDbLine
 10
5407.218462036373
 20
1480.023501583802
 30
0.0
 11
5407.218462036377
 21
1467.481970576784
 31
0.0
  0
LINE
  5
B449
330
1ABC
100
AcDbEntity
  8
Visible
100
AcDbLine
 10
5405.218462036376
 20
1467.481970576783
 30
0.0
 11
5405.218462036373
 21
1480.023501583802
 31
0.0
  0
ARC
  5
B44A
330
1ABC
100
AcDbEntity
  8
Visible
100
AcDbCircle
 10
5406.218462036375
 20
1473.752736080293
 30
0.0
 40
6.350000000000024
100
AcDbArc
 50
80.93932516882423
 51
99.06067483122853
  0
ARC
  5
B44B
330
1ABC
100
AcDbEntity
  8
Visible
100
AcDbCircle
 10
5406.218462036375
 20
1473.752736080293
 30
0.0
 40
6.34999999999999
100
AcDbArc
 50
260.9393251688118
 51
279.0606748312285
  0
SPLINE
  5
B44C
330
1ABC
100
AcDbEntity
  8
Visible
100
AcDbSpline
210
0.0
220
0.0
230
1.0
 70
    24
 71
     3
 72
     8
 73
     4
 74
     0
 42
0.0000000001
 43
0.0000000001
 40
0.0
 40
0.0
 40
0.0
 40
0.0
 40
1.0
 40
1.0
 40
1.0
 40
1.0
 10
5407.945863843035
 20
1479.863266580858
 30
0.0
 10
5407.703396574149
 20
1479.916678248508
 30
0.0
 10
5407.46092930526
 20
1479.970089916152
 30
0.0
 10
5407.218462036372
 20
1480.023501583802
 30
0.0
  0
ARC
  5
B44D
330
1ABC
100
AcDbEntity
  8
Visible
100
AcDbCircle
 10
5406.218462036373
 20
1473.752736080293
 30
0.0
 40
6.350000000000002
100
AcDbArc
 50
279.0606748312161
 51
74.21479452670073
  0
ARC
  5
B44E
330
1ABC
100
AcDbEntity
  8
Visible
100
AcDbCircle
 10
5406.218462036373
 20
1473.752736080293
 30
0.0
 40
6.350000000000003
100
AcDbArc
 50
180.0
 51
260.9393251688118
  0
ARC
  5
B44F
330
1ABC
100
AcDbEntity
  8
Visible
100
AcDbCircle
 10
5406.218462036373
 20
1473.752736080293
 30
0.0
 40
6.350000000000004
100
AcDbArc
 50
99.06067483122853
 51
180.0
  0
ARC
  5
B612
330
1ABC
100
AcDbEntity
  8
Visible
100
AcDbCircle
 10
5210.246905700218
 20
1347.439641780212
 30
0.0
 40
14.69999999999998
100
AcDbArc
 50
355.8476617706599
 51
184.152338229379
  0
CIRCLE
  5
B614
330
1ABC
100
AcDbEntity
  8
Visible
100
AcDbCircle
 10
5406.218549042689
 20
1472.719236080278
 30
0.0
 40
14.69999999999997
  0
CIRCLE
  5
B61B
330
1ABC
100
AcDbEntity
  8
Visible
100
AcDbCircle
 10
5406.218462036385
 20
1419.252736079031
 30
0.0
 40
21.0
  0
LINE
  5
B627
330
1ABC
100
AcDbEntity
  8
Visible
100
AcDbLine
 10
5399.585373642654
 20
1633.515236080305
 30
0.0
 11
5439.585373642654
 21
1633.515236080318
 31
0.0
  0
LINE
  5
B628
330
1ABC
100
AcDbEntity
  8
Visible
100
AcDbLine
 10
5396.085373642613
 20
1707.515236080306
 30
0.0
 11
5398.585373642614
 21
1707.515236080307
 31
0.0
  0
LINE
  5
B629
330
1ABC
100
AcDbEntity
  8
Visible
100
AcDbLine
 10
5440.585373642612
 20
1707.515236080321
 30
0.0
 11
5443.085373642613
 21
1707.515236080322
 31
0.0
  0
LINE
  5
B62A
330
1ABC
100
AcDbEntity
  8
Visible
100
AcDbLine
 10
5443.085373642631
 20
1658.515236080322
 30
0.0
 11
5443.085373642613
 21
1707.515236080322
 31
0.0
  0
LINE
  5
B62B
330
1ABC
100
AcDbEntity
  8
Visible
100
AcDbLine
 10
5443.085373642639
 20
1645.515236080322
 30
0.0
 11
5443.085373642631
 21
1658.515236080322
 31
0.0
  0
LINE
  5
B62C
330
1ABC
100
AcDbEntity
  8
Visible
100
AcDbLine
 10
5443.085373642653
 20
1637.015236080319
 30
0.0
 11
5443.08537364265
 21
1645.51523608032
 31
0.0
  0
LINE
  5
B62D
330
1ABC
100
AcDbEntity
  8
Visible
100
AcDbLine
 10
5396.08537364263
 20
1658.515236080306
 30
0.0
 11
5396.085373642613
 21
1707.515236080306
 31
0.0
  0
LINE
  5
B62E
330
1ABC
100
AcDbEntity
  8
Visible
100
AcDbLine
 10
5396.085373642637
 20
1645.515236080305
 30
0.0
 11
5396.08537364263
 21
1658.515236080306
 31
0.0
  0
LINE
  5
B631
330
1ABC
100
AcDbEntity
  8
Visible
100
AcDbLine
 10
5396.085373642654
 20
1637.015236080303
 30
0.0
 11
5396.085373642651
 21
1645.515236080304
 31
0.0
  0
LINE
  5
B632
330
1ABC
100
AcDbEntity
  8
Visible
100
AcDbLine
 10
5439.585373642654
 20
1636.015236080319
 30
0.0
 11
5399.585373642654
 21
1636.015236080305
 31
0.0
  0
LINE
  5
B633
330
1ABC
100
AcDbEntity
  8
Visible
100
AcDbLine
 10
5399.585373642611
 20
1707.515236080308
 30
0.0
 11
5439.585373642611
 21
1707.515236080321
 31
0.0
  0
LINE
  5
B634
330
1ABC
100
AcDbEntity
  8
Visible
100
AcDbLine
 10
5398.585373642631
 20
1658.515236080307
 30
0.0
 11
5398.585373642614
 21
1707.515236080307
 31
0.0
  0
LINE
  5
B635
330
1ABC
100
AcDbEntity
  8
Visible
100
AcDbLine
 10
5398.585373642638
 20
1645.515236080306
 30
0.0
 11
5398.585373642631
 21
1658.515236080307
 31
0.0
  0
LINE
  5
B636
330
1ABC
100
AcDbEntity
  8
Visible
100
AcDbLine
 10
5398.585373642654
 20
1637.015236080304
 30
0.0
 11
5398.58537364265
 21
1645.515236080304
 31
0.0
  0
LINE
  5
B637
330
1ABC
100
AcDbEntity
  8
Visible
100
AcDbLine
 10
5440.585373642651
 20
1645.515236080319
 30
0.0
 11
5440.585373642654
 21
1637.015236080319
 31
0.0
  0
LINE
  5
B638
330
1ABC
100
AcDbEntity
  8
Visible
100
AcDbLine
 10
5440.585373642631
 20
1658.515236080321
 30
0.0
 11
5440.585373642639
 21
1645.515236080321
 31
0.0
  0
LINE
  5
B639
330
1ABC
100
AcDbEntity
  8
Visible
100
AcDbLine
 10
5440.585373642612
 20
1707.515236080321
 30
0.0
 11
5440.585373642631
 21
1658.515236080321
 31
0.0
  0
ARC
  5
B63A
330
1ABC
100
AcDbEntity
  8
Visible
100
AcDbCircle
 10
5399.585373642653
 20
1637.015236080304
 30
0.0
 40
3.499999999999999
100
AcDbArc
 50
180.0
 51
270.000000000026
  0
LINE
  5
B63B
330
1ABC
100
AcDbEntity
  8
Visible
100
AcDbLine
 10
5399.585373642611
 20
1707.515236080308
 30
0.0
 11
5398.58537364261
 21
1707.515236080307
 31
0.0
  0
LINE
  5
B63C
330
1ABC
100
AcDbEntity
  8
Visible
100
AcDbLine
 10
5440.585373642611
 20
1707.515236080322
 30
0.0
 11
5439.585373642611
 21
1707.515236080321
 31
0.0
  0
ARC
  5
B63D
330
1ABC
100
AcDbEntity
  8
Visible
100
AcDbCircle
 10
5439.585373642654
 20
1637.015236080318
 30
0.0
 40
3.500000000000013
100
AcDbArc
 50
270.000000000026
 51
0.0
  0
ARC
  5
B63E
330
1ABC
100
AcDbEntity
  8
Visible
100
AcDbCircle
 10
5399.585373642653
 20
1637.015236080304
 30
0.0
 40
0.9999999999999984
100
AcDbArc
 50
180.0
 51
270.0000000000391
  0
ARC
  5
B63F
330
1ABC
100
AcDbEntity
  8
Visible
100
AcDbCircle
 10
5439.585373642654
 20
1637.015236080318
 30
0.0
 40
0.9999999999999953
100
AcDbArc
 50
270.0000000000391
 51
0.0
  0
LINE
  5
B645
330
1ABC
100
AcDbEntity
  8
Visible
100
AcDbLine
 10
5120.83937364232
 20
1633.514756069327
 30
0.0
 11
5160.83937364232
 21
1633.514756069344
 31
0.0
  0
LINE
  5
B646
330
1ABC
100
AcDbEntity
  8
Visible
100
AcDbLine
 10
5117.339373642281
 20
1707.514756069338
 30
0.0
 11
5119.839373642282
 21
1707.514756069339
 31
0.0
  0
LINE
  5
B647
330
1ABC
100
AcDbEntity
  8
Visible
100
AcDbLine
 10
5161.839373642282
 20
1707.514756069357
 30
0.0
 11
5164.339373642282
 21
1707.514756069359
 31
0.0
  0
LINE
  5
B648
330
1ABC
100
AcDbEntity
  8
Visible
100
AcDbLine
 10
5164.339373642302
 20
1658.514756069358
 30
0.0
 11
5164.339373642282
 21
1707.514756069359
 31
0.0
  0
LINE
  5
B649
330
1ABC
100
AcDbEntity
  8
Visible
100
AcDbLine
 10
5164.339373642309
 20
1645.514756069355
 30
0.0
 11
5164.339373642302
 21
1658.514756069358
 31
0.0
  0
LINE
  5
B64A
330
1ABC
100
AcDbEntity
  8
Visible
100
AcDbLine
 10
5164.33937364232
 20
1637.014756069346
 30
0.0
 11
5164.339373642315
 21
1645.514756069346
 31
0.0
  0
LINE
  5
B64B
330
1ABC
100
AcDbEntity
  8
Visible
100
AcDbLine
 10
5117.339373642302
 20
1658.514756069338
 30
0.0
 11
5117.339373642281
 21
1707.514756069338
 31
0.0
  0
LINE
  5
B64C
330
1ABC
100
AcDbEntity
  8
Visible
100
AcDbLine
 10
5117.339373642311
 20
1645.514756069335
 30
0.0
 11
5117.339373642302
 21
1658.514756069338
 31
0.0
  0
LINE
  5
B64F
330
1ABC
100
AcDbEntity
  8
Visible
100
AcDbLine
 10
5117.339373642319
 20
1637.014756069326
 30
0.0
 11
5117.339373642315
 21
1645.514756069326
 31
0.0
  0
LINE
  5
B650
330
1ABC
100
AcDbEntity
  8
Visible
100
AcDbLine
 10
5160.83937364232
 20
1636.014756069344
 30
0.0
 11
5120.839373642319
 21
1636.014756069327
 31
0.0
  0
LINE
  5
B651
330
1ABC
100
AcDbEntity
  8
Visible
100
AcDbLine
 10
5120.83937364228
 20
1707.514756069342
 30
0.0
 11
5160.83937364228
 21
1707.514756069359
 31
0.0
  0
LINE
  5
B652
330
1ABC
100
AcDbEntity
  8
Visible
100
AcDbLine
 10
5119.839373642302
 20
1658.514756069339
 30
0.0
 11
5119.839373642282
 21
1707.514756069339
 31
0.0
  0
LINE
  5
B653
330
1ABC
100
AcDbEntity
  8
Visible
100
AcDbLine
 10
5119.83937364231
 20
1645.514756069336
 30
0.0
 11
5119.839373642302
 21
1658.514756069339
 31
0.0
  0
LINE
  5
B654
330
1ABC
100
AcDbEntity
  8
Visible
100
AcDbLine
 10
5119.839373642318
 20
1637.014756069327
 30
0.0
 11
5119.839373642315
 21
1645.514756069326
 31
0.0
  0
LINE
  5
B655
330
1ABC
100
AcDbEntity
  8
Visible
100
AcDbLine
 10
5161.839373642315
 20
1645.514756069345
 30
0.0
 11
5161.839373642319
 21
1637.014756069345
 31
0.0
  0
LINE
  5
B656
330
1ABC
100
AcDbEntity
  8
Visible
100
AcDbLine
 10
5161.839373642302
 20
1658.514756069357
 30
0.0
 11
5161.839373642309
 21
1645.514756069354
 31
0.0
  0
LINE
  5
B657
330
1ABC
100
AcDbEntity
  8
Visible
100
AcDbLine
 10
5161.839373642282
 20
1707.514756069357
 30
0.0
 11
5161.839373642302
 21
1658.514756069358
 31
0.0
  0
ARC
  5
B658
330
1ABC
100
AcDbEntity
  8
Visible
100
AcDbCircle
 10
5120.839373642319
 20
1637.014756069327
 30
0.0
 40
3.500000000000003
100
AcDbArc
 50
180.0
 51
270.000000000026
  0
LINE
  5
B659
330
1ABC
100
AcDbEntity
  8
Visible
100
AcDbLine
 10
5120.83937364228
 20
1707.514756069342
 30
0.0
 11
5119.839373642281
 21
1707.514756069341
 31
0.0
  0
LINE
  5
B65A
330
1ABC
100
AcDbEntity
  8
Visible
100
AcDbLine
 10
5161.83937364228
 20
1707.514756069359
 30
0.0
 11
5160.83937364228
 21
1707.514756069359
 31
0.0
  0
ARC
  5
B65B
330
1ABC
100
AcDbEntity
  8
Visible
100
AcDbCircle
 10
5160.839373642319
 20
1637.014756069344
 30
0.0
 40
3.500000000000018
100
AcDbArc
 50
270.000000000026
 51
0.0
  0
ARC
  5
B65C
330
1ABC
100
AcDbEntity
  8
Visible
100
AcDbCircle
 10
5120.839373642319
 20
1637.014756069327
 30
0.0
 40
0.9999999999999998
100
AcDbArc
 50
180.0
 51
270.0000000000391
  0
ARC
  5
B65D
330
1ABC
100
AcDbEntity
  8
Visible
100
AcDbCircle
 10
5160.839373642319
 20
1637.014756069344
 30
0.0
 40
0.9999999999999966
100
AcDbArc
 50
270.0000000000391
 51
0.0
  0
LINE
  5
B665
330
1ABC
100
AcDbEntity
  8
Visible
100
AcDbLine
 10
4750.823373642315
 20
1633.514756069169
 30
0.0
 11
4790.823373642315
 21
1633.514756069186
 31
0.0
  0
LINE
  5
B666
330
1ABC
100
AcDbEntity
  8
Visible
100
AcDbLine
 10
4747.323373642267
 20
1707.514756069181
 30
0.0
 11
4749.823373642267
 21
1707.514756069182
 31
0.0
  0
LINE
  5
B667
330
1ABC
100
AcDbEntity
  8
Visible
100
AcDbLine
 10
4791.823373642268
 20
1707.514756069199
 30
0.0
 11
4794.323373642268
 21
1707.5147560692
 31
0.0
  0
LINE
  5
B668
330
1ABC
100
AcDbEntity
  8
Visible
100
AcDbLine
 10
4794.323373642288
 20
1658.5147560692
 30
0.0
 11
4794.323373642268
 21
1707.5147560692
 31
0.0
  0
LINE
  5
B669
330
1ABC
100
AcDbEntity
  8
Visible
100
AcDbLine
 10
4794.323373642297
 20
1645.514756069198
 30
0.0
 11
4794.323373642288
 21
1658.5147560692
 31
0.0
  0
LINE
  5
B66A
330
1ABC
100
AcDbEntity
  8
Visible
100
AcDbLine
 10
4794.323373642313
 20
1637.014756069188
 30
0.0
 11
4794.32337364231
 21
1645.514756069188
 31
0.0
  0
LINE
  5
B66B
330
1ABC
100
AcDbEntity
  8
Visible
100
AcDbLine
 10
4747.323373642288
 20
1658.514756069181
 30
0.0
 11
4747.323373642267
 21
1707.514756069181
 31
0.0
  0
LINE
  5
B66C
330
1ABC
100
AcDbEntity
  8
Visible
100
AcDbLine
 10
4747.323373642297
 20
1645.514756069178
 30
0.0
 11
4747.323373642288
 21
1658.514756069181
 31
0.0
  0
LINE
  5
B66F
330
1ABC
100
AcDbEntity
  8
Visible
100
AcDbLine
 10
4747.323373642313
 20
1637.014756069168
 30
0.0
 11
4747.323373642309
 21
1645.514756069168
 31
0.0
  0
LINE
  5
B670
330
1ABC
100
AcDbEntity
  8
Visible
100
AcDbLine
 10
4790.823373642314
 20
1636.014756069186
 30
0.0
 11
4750.823373642313
 21
1636.014756069169
 31
0.0
  0
LINE
  5
B671
330
1ABC
100
AcDbEntity
  8
Visible
100
AcDbLine
 10
4750.823373642265
 20
1707.514756069184
 30
0.0
 11
4790.823373642264
 21
1707.514756069201
 31
0.0
  0
LINE
  5
B672
330
1ABC
100
AcDbEntity
  8
Visible
100
AcDbLine
 10
4749.823373642288
 20
1658.514756069181
 30
0.0
 11
4749.823373642267
 21
1707.514756069182
 31
0.0
  0
LINE
  5
B673
330
1ABC
100
AcDbEntity
  8
Visible
100
AcDbLine
 10
4749.823373642297
 20
1645.514756069179
 30
0.0
 11
4749.823373642288
 21
1658.514756069181
 31
0.0
  0
LINE
  5
B674
330
1ABC
100
AcDbEntity
  8
Visible
100
AcDbLine
 10
4749.823373642313
 20
1637.014756069169
 30
0.0
 11
4749.82337364231
 21
1645.514756069169
 31
0.0
  0
LINE
  5
B675
330
1ABC
100
AcDbEntity
  8
Visible
100
AcDbLine
 10
4791.823373642309
 20
1645.514756069187
 30
0.0
 11
4791.823373642313
 21
1637.014756069187
 31
0.0
  0
LINE
  5
B676
330
1ABC
100
AcDbEntity
  8
Visible
100
AcDbLine
 10
4791.823373642288
 20
1658.514756069199
 30
0.0
 11
4791.823373642297
 21
1645.514756069196
 31
0.0
  0
LINE
  5
B677
330
1ABC
100
AcDbEntity
  8
Visible
100
AcDbLine
 10
4791.823373642268
 20
1707.514756069199
 30
0.0
 11
4791.823373642288
 21
1658.514756069199
 31
0.0
  0
ARC
  5
B678
330
1ABC
100
AcDbEntity
  8
Visible
100
AcDbCircle
 10
4750.823373642313
 20
1637.014756069169
 30
0.0
 40
3.500000000000003
100
AcDbArc
 50
180.0
 51
270.000000000026
  0
LINE
  5
B679
330
1ABC
100
AcDbEntity
  8
Visible
100
AcDbLine
 10
4750.823373642265
 20
1707.514756069184
 30
0.0
 11
4749.823373642264
 21
1707.514756069183
 31
0.0
  0
LINE
  5
B67A
330
1ABC
100
AcDbEntity
  8
Visible
100
AcDbLine
 10
4791.823373642265
 20
1707.514756069201
 30
0.0
 11
4790.823373642264
 21
1707.514756069201
 31
0.0
  0
ARC
  5
B67B
330
1ABC
100
AcDbEntity
  8
Visible
100
AcDbCircle
 10
4790.823373642314
 20
1637.014756069186
 30
0.0
 40
3.500000000000018
100
AcDbArc
 50
270.000000000026
 51
0.0
  0
ARC
  5
B67C
330
1ABC
100
AcDbEntity
  8
Visible
100
AcDbCircle
 10
4750.823373642313
 20
1637.014756069169
 30
0.0
 40
0.9999999999999998
100
AcDbArc
 50
180.0
 51
270.000000000013
  0
ARC
  5
B67D
330
1ABC
100
AcDbEntity
  8
Visible
100
AcDbCircle
 10
4790.823373642314
 20
1637.014756069186
 30
0.0
 40
0.9999999999999966
100
AcDbArc
 50
270.000000000013
 51
0.0
  0
LINE
  5
B695
330
1ABC
100
AcDbEntity
  8
Visible
100
AcDbLine
 10
5493.885373642581
 20
1720.895236080318
 30
0.0
 11
5493.885373642579
 21
1723.045236080318
 31
0.0
  0
LINE
  5
B697
330
1ABC
100
AcDbEntity
  8
Visible
100
AcDbLine
 10
5493.885373642689
 20
1369.565236080318
 30
0.0
 11
5493.885373642689
 21
1371.715236080319
 31
0.0
  0
LINE
  5
B69B
330
1ABC
100
AcDbEntity
  8
Visible
100
AcDbLine
 10
5493.885373642581
 20
1720.895236080318
 30
0.0
 11
5493.885373642689
 21
1371.715236080319
 31
0.0
  0
SPLINE
  5
B6A1
330
1ABC
100
AcDbEntity
  8
Visible
100
AcDbSpline
210
0.0
220
0.0
230
1.0
 70
     8
 71
     3
 72
    11
 73
     7
 74
     0
 42
0.0000000001
 43
0.0000000001
 40
0.0
 40
0.0
 40
0.0
 40
0.0
 40
1.184929335205092
 40
1.184929335205092
 40
1.184929335205092
 40
1.570796326794878
 40
1.570796326794878
 40
1.570796326794878
 40
1.570796326794878
 10
5393.560373642603
 20
1718.015236080272
 30
0.0
 10
5394.330577710487
 20
1717.455159481165
 30
0.0
 10
5395.077119028867
 20
1716.895082882058
 30
0.0
 10
5395.366994974267
 20
1716.335006282951
 30
0.0
 10
5395.461391792426
 20
1716.15261981826
 30
0.0
 10
5395.510373642604
 20
1715.970233353569
 30
0.0
 10
5395.510373642604
 20
1715.787846888877
 30
0.0
  0
SPLINE
  5
B6A9
330
1ABC
100
AcDbEntity
  8
Visible
100
AcDbSpline
210
0.0
220
0.0
230
1.0
 70
     8
 71
     3
 72
    11
 73
     7
 74
     0
 42
0.0000000001
 43
0.0000000001
 40
0.0
 40
0.0
 40
0.0
 40
0.0
 40
1.184929335205185
 40
1.184929335205185
 40
1.184929335205185
 40
1.570796326794915
 40
1.570796326794915
 40
1.570796326794915
 40
1.570796326794915
 10
5223.260373642727
 20
1368.515236080215
 30
0.0
 10
5222.490169574843
 20
1369.075312679322
 30
0.0
 10
5221.743628256464
 20
1369.635389278429
 30
0.0
 10
5221.453752311064
 20
1370.195465877536
 30
0.0
 10
5221.359355492904
 20
1370.377852342227
 30
0.0
 10
5221.310373642726
 20
1370.560238806918
 30
0.0
 10
5221.310373642726
 20
1370.74262527161
 30
0.0
  0
SPLINE
  5
B6AE
330
1ABC
100
AcDbEntity
  8
Visible
100
AcDbSpline
210
0.0
220
0.0
230
1.0
 70
     8
 71
     3
 72
    11
 73
     7
 74
     0
 42
0.0000000001
 43
0.0000000001
 40
0.0
 40
0.0
 40
0.0
 40
0.0
 40
1.184929335205184
 40
1.184929335205184
 40
1.184929335205184
 40
1.570796326794895
 40
1.570796326794895
 40
1.570796326794895
 40
1.570796326794895
 10
5221.310373642606
 20
1715.787846888817
 30
0.0
 10
5221.310373642605
 20
1716.347923487924
 30
0.0
 10
5221.81289385365
 20
1716.908000087031
 30
0.0
 10
5222.526466724814
 20
1717.468076686138
 30
0.0
 10
5222.758838570878
 20
1717.65046315083
 30
0.0
 10
5223.009560098071
 20
1717.832849615521
 30
0.0
 10
5223.260373642606
 20
1718.015236080212
 30
0.0
  0
SPLINE
  5
B6B1
330
1ABC
100
AcDbEntity
  8
Visible
100
AcDbSpline
210
0.0
220
0.0
230
1.0
 70
     8
 71
     3
 72
    11
 73
     7
 74
     0
 42
0.0000000001
 43
0.0000000001
 40
0.0
 40
0.0
 40
0.0
 40
0.0
 40
1.184929335205439
 40
1.184929335205439
 40
1.184929335205439
 40
1.570796326794803
 40
1.570796326794803
 40
1.570796326794803
 40
1.570796326794803
 10
5367.513146992685
 20
1368.515236080265
 30
0.0
 10
5366.953070393579
 20
1367.745032012382
 30
0.0
 10
5366.392993794472
 20
1366.998490694002
 30
0.0
 10
5365.832917195365
 20
1366.708614748602
 30
0.0
 10
5365.650530730674
 20
1366.614217930444
 30
0.0
 10
5365.468144265983
 20
1366.565236080265
 30
0.0
 10
5365.285757801292
 20
1366.565236080264
 30
0.0
  0
SPLINE
  5
B6B6
330
1ABC
100
AcDbEntity
  8
Visible
100
AcDbSpline
210
0.0
220
0.0
230
1.0
 70
     8
 71
     3
 72
    11
 73
     7
 74
     0
 42
0.0000000001
 43
0.0000000001
 40
0.0
 40
0.0
 40
0.0
 40
0.0
 40
1.184929335205207
 40
1.184929335205207
 40
1.184929335205207
 40
1.570796326794903
 40
1.570796326794903
 40
1.570796326794903
 40
1.570796326794903
 10
5225.487762834123
 20
1366.565236080216
 30
0.0
 10
5224.927686235016
 20
1366.565236080216
 30
0.0
 10
5224.367609635908
 20
1367.06775629126
 30
0.0
 10
5223.807533036801
 20
1367.781329162424
 30
0.0
 10
5223.625146572109
 20
1368.013701008488
 30
0.0
 10
5223.442760107419
 20
1368.264422535682
 30
0.0
 10
5223.260373642727
 20
1368.515236080215
 30
0.0
  0
LINE
  5
B6BA
330
1ABC
100
AcDbEntity
  8
Visible
100
AcDbLine
 10
5221.310373642726
 20
1370.74262527161
 30
0.0
 11
5221.310373642726
 21
1379.592625271609
 31
0.0
  0
SPLINE
  5
B6BD
330
1ABC
100
AcDbEntity
  8
Visible
100
AcDbSpline
210
0.0
220
0.0
230
1.0
 70
     8
 71
     3
 72
    11
 73
     7
 74
     0
 42
0.0000000001
 43
0.0000000001
 40
0.0
 40
0.0
 40
0.0
 40
0.0
 40
1.184929335205184
 40
1.184929335205184
 40
1.184929335205184
 40
1.570796326794895
 40
1.570796326794895
 40
1.570796326794895
 40
1.570796326794895
 10
5391.332984451209
 20
1719.96523608027
 30
0.0
 10
5391.893061050316
 20
1719.965236080271
 30
0.0
 10
5392.453137649422
 20
1719.462715869227
 30
0.0
 10
5393.013214248529
 20
1718.749142998063
 30
0.0
 10
5393.195600713221
 20
1718.516771151999
 30
0.0
 10
5393.377987177911
 20
1718.266049624805
 30
0.0
 10
5393.560373642603
 20
1718.015236080272
 30
0.0
  0
SPLINE
  5
B6C0
330
1ABC
100
AcDbEntity
  8
Visible
100
AcDbSpline
210
0.0
220
0.0
230
1.0
 70
     8
 71
     3
 72
    11
 73
     7
 74
     0
 42
0.0000000001
 43
0.0000000001
 40
0.0
 40
0.0
 40
0.0
 40
0.0
 40
1.184929335205186
 40
1.184929335205186
 40
1.184929335205186
 40
1.570796326794895
 40
1.570796326794895
 40
1.570796326794895
 40
1.570796326794895
 10
5223.260373642606
 20
1718.015236080212
 30
0.0
 10
5223.820450241712
 20
1718.785440148096
 30
0.0
 10
5224.380526840818
 20
1719.531981466475
 30
0.0
 10
5224.940603439925
 20
1719.821857411875
 30
0.0
 10
5225.122989904617
 20
1719.916254230034
 30
0.0
 10
5225.305376369309
 20
1719.965236080213
 30
0.0
 10
5225.487762834
 20
1719.965236080213
 30
0.0
  0
LINE
  5
B6C5
330
1ABC
100
AcDbEntity
  8
Visible
100
AcDbLine
 10
5395.510373642604
 20
1715.787846888877
 30
0.0
 11
5395.510373642611
 21
1706.937846888877
 31
0.0
  0
LINE
  5
B6C6
330
1ABC
100
AcDbEntity
  8
Visible
100
AcDbLine
 10
5221.310373642612
 20
1706.937846888816
 30
0.0
 11
5221.310373642606
 21
1715.787846888817
 31
0.0
  0
LINE
  5
B6CB
330
1ABC
100
AcDbEntity
  8
Visible
100
AcDbLine
 10
5365.285757801292
 20
1366.565236080264
 30
0.0
 11
5356.435757801295
 21
1366.56523608026
 31
0.0
  0
LINE
  5
B6CC
330
1ABC
100
AcDbEntity
  8
Visible
100
AcDbLine
 10
5382.482984451211
 20
1719.965236080267
 30
0.0
 11
5391.332984451209
 21
1719.96523608027
 31
0.0
  0
LINE
  5
B6D1
330
1ABC
100
AcDbEntity
  8
Visible
100
AcDbLine
 10
5225.487762834
 20
1719.965236080213
 30
0.0
 11
5234.337762834002
 21
1719.965236080216
 31
0.0
  0
LINE
  5
B6D2
330
1ABC
100
AcDbEntity
  8
Visible
100
AcDbLine
 10
5234.337762834125
 20
1366.565236080218
 30
0.0
 11
5225.487762834123
 21
1366.565236080216
 31
0.0
  0
SPLINE
  5
B6D9
330
1ABC
100
AcDbEntity
  8
Visible
100
AcDbSpline
210
0.0
220
0.0
230
1.0
 70
     8
 71
     3
 72
    11
 73
     7
 74
     0
 42
0.0000000001
 43
0.0000000001
 40
0.0
 40
0.0
 40
0.0
 40
0.0
 40
1.184929335204067
 40
1.184929335204067
 40
1.184929335204067
 40
1.570796326793166
 40
1.570796326793166
 40
1.570796326793166
 40
1.570796326793166
 10
5369.985904159147
 20
1371.309336400599
 30
0.0
 10
5369.847007795595
 20
1370.521615979178
 30
0.0
 10
5369.213225632162
 20
1369.821157276645
 30
0.0
 10
5368.371597172747
 20
1369.157347483934
 30
0.0
 10
5368.097524591351
 20
1368.941180764038
 30
0.0
 10
5367.805381101713
 20
1368.72820043283
 30
0.0
 10
5367.513146992685
 20
1368.515236080265
 30
0.0
  0
LINE
  5
B6DC
330
1ABC
100
AcDbEntity
  8
Visible
100
AcDbLine
 10
5372.180662553637
 20
1383.756429781558
 30
0.0
 11
5369.98590415914
 21
1371.3093364006
 31
0.0
  0
LINE
  5
B6E2
330
1ABC
100
AcDbEntity
  8
Visible
100
AcDbLine
 10
5372.180662553637
 20
1383.756429781558
 30
0.0
 11
5395.510373642676
 21
1516.065796138031
 31
0.0
  0
LINE
  5
B6E4
330
1ABC
100
AcDbEntity
  8
Visible
100
AcDbLine
 10
5382.482984451211
 20
1719.965236080267
 30
0.0
 11
5234.337762834002
 21
1719.965236080216
 31
0.0
  0
LINE
  5
B6E7
330
1ABC
100
AcDbEntity
  8
Visible
100
AcDbLine
 10
5234.337762834125
 20
1366.565236080218
 30
0.0
 11
5356.435757801295
 21
1366.56523608026
 31
0.0
  0
LINE
  5
B6E8
330
1ABC
100
AcDbEntity
  8
Visible
100
AcDbLine
 10
5221.310373642612
 20
1706.937846888816
 30
0.0
 11
5221.310373642726
 21
1379.592625271609
 31
0.0
  0
LINE
  5
B6EB
330
1ABC
100
AcDbEntity
  8
Visible
100
AcDbLine
 10
5395.510373642676
 20
1516.065796138031
 30
0.0
 11
5395.510373642611
 21
1706.937846888877
 31
0.0
  0
ELLIPSE
  5
B6EF
330
1ABC
100
AcDbEntity
  8
Visible
100
AcDbEllipse
 10
5209.929702541998
 20
1349.571742871404
 30
0.0
 11
-9.996026023448299
 21
0.2818931331980116
 31
0.0
210
0.0
220
0.0
230
1.0
 40
0.999987854986594
 41
0.0
 42
6.283185307179586
  0
LINE
  5
B6F7
330
1ABC
100
AcDbEntity
  8
Visible
100
AcDbLine
 10
5199.939928384934
 20
1350.075329305625
 30
0.0
 11
5199.933676518546
 21
1349.85363600448
 31
0.0
  0
LINE
  5
B700
330
1ABC
100
AcDbEntity
  8
Visible
100
AcDbLine
 10
5200.408091803121
 20
1349.826205504892
 30
0.0
 11
5200.40848775466
 21
1349.840246080633
 31
0.0
  0
LINE
  5
B713
330
1ABC
100
AcDbEntity
  8
Visible
100
AcDbLine
 10
5405.5853736426
 20
1741.605236080309
 30
0.0
 11
5405.5853736426
 21
1741.615236080309
 31
0.0
  0
LINE
  5
B714
330
1ABC
100
AcDbEntity
  8
Visible
100
AcDbLine
 10
5433.5853736426
 20
1741.605236080318
 30
0.0
 11
5433.5853736426
 21
1741.615236080318
 31
0.0
  0
LINE
  5
B71B
330
1ABC
100
AcDbEntity
  8
Visible
100
AcDbLine
 10
4787.823373642259
 20
1741.614756069193
 30
0.0
 11
4759.823373642259
 21
1741.614756069181
 31
0.0
  0
LINE
  5
B71C
330
1ABC
100
AcDbEntity
  8
Visible
100
AcDbLine
 10
4787.823373642257
 20
1744.114756069193
 30
0.0
 11
4759.823373642257
 21
1744.114756069182
 31
0.0
  0
LINE
  5
B71D
330
1ABC
100
AcDbEntity
  8
Visible
100
AcDbLine
 10
4759.823373642259
 20
1741.614756069181
 30
0.0
 11
4759.823373642257
 21
1744.114756069182
 31
0.0
  0
LINE
  5
B71E
330
1ABC
100
AcDbEntity
  8
Visible
100
AcDbLine
 10
4787.823373642259
 20
1741.614756069193
 30
0.0
 11
4787.823373642257
 21
1744.114756069193
 31
0.0
  0
LINE
  5
B71F
330
1ABC
100
AcDbEntity
  8
Visible
100
AcDbLine
 10
4759.82337364225
 20
1741.604756069188
 30
0.0
 11
4759.82337364225
 21
1741.614756069188
 31
0.0
  0
LINE
  5
B720
330
1ABC
100
AcDbEntity
  8
Visible
100
AcDbLine
 10
4787.823373642249
 20
1741.6047560692
 30
0.0
 11
4787.823373642249
 21
1741.6147560692
 31
0.0
  0
LINE
  5
B721
330
1ABC
100
AcDbEntity
  8
Visible
100
AcDbLine
 10
4759.823373642264
 20
1707.514756069188
 30
0.0
 11
4759.82337364225
 21
1741.604756069188
 31
0.0
  0
LINE
  5
B722
330
1ABC
100
AcDbEntity
  8
Visible
100
AcDbLine
 10
4787.823373642249
 20
1741.6047560692
 30
0.0
 11
4787.823373642264
 21
1707.5147560692
 31
0.0
  0
CIRCLE
  5
B724
330
1ABC
100
AcDbEntity
  8
Visible
100
AcDbCircle
 10
4773.823373642254
 20
1732.314756069196
 30
0.0
 40
5.999999999999981
  0
LINE
  5
B726
330
1ABC
100
AcDbEntity
  8
Visible
100
AcDbLine
 10
5376.160373642622
 20
1668.215236080266
 30
0.0
 11
5240.660373642621
 21
1668.215236080219
 31
0.0
  0
ARC
  5
B728
330
1ABC
100
AcDbEntity
  8
Visible
100
AcDbCircle
 10
5240.660373642622
 20
1666.715236080219
 30
0.0
 40
1.5
100
AcDbArc
 50
90.00000000002605
 51
180.0
  0
ARC
  5
B729
330
1ABC
100
AcDbEntity
  8
Visible
100
AcDbCircle
 10
5376.160373642623
 20
1666.715236080266
 30
0.0
 40
1.5
100
AcDbArc
 50
0.0
 51
90.00000000002605
  0
LINE
  5
B72C
330
1ABC
100
AcDbEntity
  8
Visible
100
AcDbLine
 10
5239.160373642622
 20
1666.715236080218
 30
0.0
 11
5239.160373642633
 21
1632.715236080218
 31
0.0
  0
LINE
  5
B72D
330
1ABC
100
AcDbEntity
  8
Visible
100
AcDbLine
 10
5377.660373642634
 20
1632.715236080266
 30
0.0
 11
5377.660373642623
 21
1666.715236080267
 31
0.0
  0
ARC
  5
B730
330
1ABC
100
AcDbEntity
  8
Visible
100
AcDbCircle
 10
5240.660373642634
 20
1632.715236080219
 30
0.0
 40
1.499999999999997
100
AcDbArc
 50
180.0
 51
270.000000000026
  0
ARC
  5
B731
330
1ABC
100
AcDbEntity
  8
Visible
100
AcDbCircle
 10
5376.160373642634
 20
1632.715236080266
 30
0.0
 40
1.499999999999972
100
AcDbArc
 50
270.000000000026
 51
0.0
  0
LINE
  5
B733
330
1ABC
100
AcDbEntity
  8
Visible
100
AcDbLine
 10
5240.660373642634
 20
1631.215236080219
 30
0.0
 11
5376.160373642634
 21
1631.215236080266
 31
0.0
  0
CIRCLE
  5
B73A
330
1ABC
100
AcDbEntity
  8
Visible
100
AcDbCircle
 10
5313.410549342763
 20
1330.342426446039
 30
0.0
 40
6.919999999999998
  0
CIRCLE
  5
B73B
330
1ABC
100
AcDbEntity
  8
Visible
100
AcDbCircle
 10
5313.410549342763
 20
1330.342426446039
 30
0.0
 40
7.939999999999996
  0
ARC
  5
B73C
330
1ABC
100
AcDbEntity
  8
Visible
100
AcDbCircle
 10
5442.885373642756
 20
1323.525236080245
 30
0.0
 40
2.149999999999994
100
AcDbArc
 50
270.000000000013
 51
0.0
  0
ARC
  5
B73E
330
1ABC
100
AcDbEntity
  8
Visible
100
AcDbCircle
 10
5183.935725042757
 20
1323.525236080155
 30
0.0
 40
2.15000000000004
100
AcDbArc
 50
180.0
 51
270.000000000013
  0
LINE
  5
B740
330
1ABC
100
AcDbEntity
  8
Visible
100
AcDbLine
 10
5182.935725042739
 20
1359.325113980159
 30
0.0
 11
5182.935725042736
 21
1361.436243727456
 31
0.0
  0
LINE
  5
B744
330
1ABC
100
AcDbEntity
  8
Visible
100
AcDbLine
 10
5182.935725042742
 20
1346.375236080159
 30
0.0
 11
5182.935725042739
 21
1359.325113980159
 31
0.0
  0
ARC
  5
B746
330
1ABC
100
AcDbEntity
  8
Visible
100
AcDbCircle
 10
5210.246905742748
 20
1347.039236080163
 30
0.0
 40
12.69999999999997
100
AcDbArc
 50
182.9969883252763
 51
357.0030116747626
  0
LINE
  5
B747
330
1ABC
100
AcDbEntity
  8
Visible
100
AcDbLine
 10
5181.785725042749
 20
1346.375236080153
 30
0.0
 11
5197.564275731587
 21
1346.375236080159
 31
0.0
  0
LINE
  5
B748
330
1ABC
100
AcDbEntity
  8
Visible
100
AcDbLine
 10
5222.929535753909
 20
1346.375236080168
 30
0.0
 11
5445.035373642748
 21
1346.375236080245
 31
0.0
  0
SPLINE
  5
B74E
330
1ABC
100
AcDbEntity
  8
Visible
100
AcDbSpline
210
0.0
220
0.0
230
1.0
 70
     8
 71
     3
 72
     8
 73
     4
 74
     0
 42
0.0000000001
 43
0.0000000001
 40
-1.0
 40
-1.0
 40
-1.0
 40
-1.0
 40
-0.9541728134500157
 40
-0.9541728134500157
 40
-0.9541728134500157
 40
-0.9541728134500157
 10
5309.224152859406
 20
1323.525236080198
 30
0.0
 10
5309.338853761738
 20
1323.478465063375
 30
0.0
 10
5309.455352431561
 20
1323.434255036531
 30
0.0
 10
5309.573487442074
 20
1323.392538928908
 30
0.0
  0
SPLINE
  5
B74F
330
1ABC
100
AcDbEntity
  8
Visible
100
AcDbSpline
210
0.0
220
0.0
230
1.0
 70
     8
 71
     3
 72
     8
 73
     4
 74
     0
 42
0.0000000001
 43
0.0000000001
 40
-0.0458271865497896
 40
-0.0458271865497896
 40
-0.0458271865497896
 40
-0.0458271865497896
 40
0.0
 40
0.0
 40
0.0
 40
0.0
 10
5317.247571774397
 20
1323.392661998538
 30
0.0
 10
5317.365731740838
 20
1323.434301603994
 30
0.0
 10
5317.482244923773
 20
1323.478465063378
 30
0.0
 10
5317.596945826107
 20
1323.525236080201
 30
0.0
  0
SPLINE
  5
B750
330
1ABC
100
AcDbEntity
  8
Visible
100
AcDbSpline
210
0.0
220
0.0
230
1.0
 70
     8
 71
     3
 72
    11
 73
     7
 74
     0
 42
0.0000000001
 43
0.0000000001
 40
0.0
 40
0.0
 40
0.0
 40
0.0
 40
0.5993324967621207
 40
0.5993324967621207
 40
0.5993324967621207
 40
1.0
 40
1.0
 40
1.0
 40
1.0
 10
5317.596945826107
 20
1323.525236080201
 30
0.0
 10
5316.096876034549
 20
1322.210132674153
 30
0.0
 10
5314.286839782457
 20
1321.853903406569
 30
0.0
 10
5312.537026725512
 20
1322.054001805055
 30
0.0
 10
5311.367236613269
 20
1322.187772168177
 30
0.0
 10
5310.22698387777
 20
1322.646059327649
 30
0.0
 10
5309.224152859406
 20
1323.525236080198
 30
0.0
  0
LINE
  5
B751
330
1ABC
100
AcDbEntity
  8
Visible
100
AcDbLine
 10
5442.885373642756
 20
1321.375236080245
 30
0.0
 11
5183.935725042757
 21
1321.375236080155
 31
0.0
  0
LINE
  5
B758
330
1ABC
100
AcDbEntity
  8
Visible
100
AcDbLine
 10
5179.635725042755
 20
1323.525236080153
 30
0.0
 11
5179.635725042748
 21
1346.375236080153
 31
0.0
  0
LINE
  5
B759
330
1ABC
100
AcDbEntity
  8
Visible
100
AcDbLine
 10
5179.635725042755
 20
1323.525236080153
 30
0.0
 11
5181.785725042757
 21
1323.525236080154
 31
0.0
  0
LINE
  5
B75A
330
1ABC
100
AcDbEntity
  8
Visible
100
AcDbLine
 10
5181.785725042749
 20
1346.375236080153
 30
0.0
 11
5179.635725042748
 21
1346.375236080153
 31
0.0
  0
LINE
  5
B75B
330
1ABC
100
AcDbEntity
  8
Visible
100
AcDbLine
 10
5447.185373642748
 20
1346.375236080246
 30
0.0
 11
5447.185373642756
 21
1323.525236080246
 31
0.0
  0
LINE
  5
B75C
330
1ABC
100
AcDbEntity
  8
Visible
100
AcDbLine
 10
5447.185373642748
 20
1346.375236080246
 30
0.0
 11
5445.035373642748
 21
1346.375236080245
 31
0.0
  0
LINE
  5
B75D
330
1ABC
100
AcDbEntity
  8
Visible
100
AcDbLine
 10
5445.035373642756
 20
1323.525236080245
 30
0.0
 11
5447.185373642756
 21
1323.525236080246
 31
0.0
  0
LINE
  5
B769
330
1ABC
100
AcDbEntity
  8
Visible
100
AcDbLine
 10
5182.935373642731
 20
1361.475113980157
 30
0.0
 11
5182.935373642599
 21
1739.777485980133
 31
0.0
  0
LINE
  5
B76C
330
1ABC
100
AcDbEntity
  8
Visible
100
AcDbLine
 10
5433.885373642636
 20
1633.515236080316
 30
0.0
 11
5433.885373642734
 21
1346.375236080241
 31
0.0
  0
ARC
  5
B774
330
1ABC
100
AcDbEntity
  8
Visible
100
AcDbCircle
 10
5183.885373642598
 20
1739.465236080212
 30
0.0
 40
2.149999999999997
100
AcDbArc
 50
90.00000000001303
 51
180.0
  0
ARC
  5
B775
330
1ABC
100
AcDbEntity
  8
Visible
100
AcDbCircle
 10
5183.885373642598
 20
1739.465236080212
 30
0.0
 40
0.9999999999999987
100
AcDbArc
 50
90.00000000003907
 51
161.8051276612345
  0
LINE
  5
B776
330
1ABC
100
AcDbEntity
  8
Visible
100
AcDbLine
 10
5185.085373642598
 20
1740.465236080212
 30
0.0
 11
5183.885373642598
 21
1740.465236080212
 31
0.0
  0
LINE
  5
B777
330
1ABC
100
AcDbEntity
  8
Visible
100
AcDbLine
 10
5185.085373642598
 20
1741.615236080212
 30
0.0
 11
5183.885373642597
 21
1741.615236080212
 31
0.0
  0
ARC
  5
B779
330
1ABC
100
AcDbEntity
  8
Visible
100
AcDbCircle
 10
5436.085373642579
 20
1725.1952360803
 30
0.0
 40
0.999999999999871
100
AcDbArc
 50
180.0
 51
270.0000000000391
  0
LINE
  5
B77C
330
1ABC
100
AcDbEntity
  8
Visible
100
AcDbLine
 10
5493.935373642579
 20
1724.195236080318
 30
0.0
 11
5493.93537364258
 21
1723.045236080318
 31
0.0
  0
LINE
  5
B77D
330
1ABC
100
AcDbEntity
  8
Visible
100
AcDbLine
 10
5436.08537364258
 20
1724.1952360803
 30
0.0
 11
5493.935373642579
 21
1724.195236080318
 31
0.0
  0
LINE
  5
B77E
330
1ABC
100
AcDbEntity
  8
Visible
100
AcDbLine
 10
5433.944696179718
 20
1724.995236080298
 30
0.0
 11
5185.085373642604
 21
1724.995236080212
 31
0.0
  0
LINE
  5
B77F
330
1ABC
100
AcDbEntity
  8
Visible
100
AcDbLine
 10
5185.085373642604
 20
1724.995236080212
 30
0.0
 11
5185.0853736426
 21
1739.465236080212
 31
0.0
  0
LINE
  5
B780
330
1ABC
100
AcDbEntity
  8
Visible
100
AcDbLine
 10
5433.935373642597
 20
1741.615236080298
 30
0.0
 11
5185.085373642598
 21
1741.615236080212
 31
0.0
  0
LINE
  5
B781
330
1ABC
100
AcDbEntity
  8
Visible
100
AcDbLine
 10
5185.085373642598
 20
1741.615236080212
 30
0.0
 11
5185.0853736426
 21
1739.465236080212
 31
0.0
  0
LINE
  5
B783
330
1ABC
100
AcDbEntity
  8
Visible
100
AcDbLine
 10
5435.085373642603
 20
1725.195236080298
 30
0.0
 11
5435.085373642598
 21
1739.465236080298
 31
0.0
  0
ARC
  5
B784
330
1ABC
100
AcDbEntity
  8
Visible
100
AcDbCircle
 10
5432.935373642599
 20
1739.465236080298
 30
0.0
 40
2.149999999999996
100
AcDbArc
 50
0.0
 51
62.28225231041754
  0
LINE
  5
B787
330
1ABC
100
AcDbEntity
  8
Visible
100
AcDbLine
 10
5181.735373642267
 20
1740.790113969296
 30
0.0
 11
5181.735373642267
 21
1739.46523608021
 31
0.0
  0
LINE
  5
B78C
330
1ABC
100
AcDbEntity
  8
Visible
100
AcDbLine
 10
4807.473373642266
 20
1731.190113969161
 30
0.0
 11
4808.473373642266
 21
1731.190113969161
 31
0.0
  0
LINE
  5
B78F
330
1ABC
100
AcDbEntity
  8
Visible
100
AcDbLine
 10
5121.399373642266
 20
1731.190113969294
 30
0.0
 11
5122.399373642266
 21
1731.190113969295
 31
0.0
  0
LINE
  5
B790
330
1ABC
100
AcDbEntity
  8
Visible
100
AcDbLine
 10
4807.473373642268
 20
1731.190113969157
 30
0.0
 11
4787.823373642255
 21
1731.190113969149
 31
0.0
  0
LINE
  5
B791
330
1ABC
100
AcDbEntity
  8
Visible
100
AcDbLine
 10
4779.717029565939
 20
1731.190113969145
 30
0.0
 11
4767.929717718568
 21
1731.19011396914
 31
0.0
  0
LINE
  5
B792
330
1ABC
100
AcDbEntity
  8
Visible
100
AcDbLine
 10
4770.702789827268
 20
1727.190113969141
 30
0.0
 11
4776.943957457244
 21
1727.190113969144
 31
0.0
  0
LINE
  5
B796
330
1ABC
100
AcDbEntity
  8
Visible
100
AcDbLine
 10
5180.585373642269
 20
1731.190113969316
 30
0.0
 11
5122.399373642268
 21
1731.190113969292
 31
0.0
  0
LINE
  5
B797
330
1ABC
100
AcDbEntity
  8
Visible
100
AcDbLine
 10
5121.399373642268
 20
1731.190113969291
 30
0.0
 11
5097.49688606595
 21
1731.190113969281
 31
0.0
  0
LINE
  5
B79A
330
1ABC
100
AcDbEntity
  8
Visible
100
AcDbLine
 10
4817.13086121891
 20
1731.190113969161
 30
0.0
 11
4808.473373642268
 21
1731.190113969158
 31
0.0
  0
LINE
  5
B7A2
330
1ABC
100
AcDbEntity
  8
Visible
100
AcDbLine
 10
4748.223572742416
 20
1350.475113980303
 30
0.0
 11
4797.448373642364
 21
1350.475113980324
 31
0.0
  0
LINE
  5
B7A4
330
1ABC
100
AcDbEntity
  8
Visible
100
AcDbLine
 10
4748.22357274242
 20
1337.475113980303
 30
0.0
 11
4748.223572742416
 21
1350.475113980303
 31
0.0
  0
LINE
  5
B7A6
330
1ABC
100
AcDbEntity
  8
Visible
100
AcDbLine
 10
4810.308293089347
 20
1337.47511398033
 30
0.0
 11
4748.22357274242
 21
1337.475113980303
 31
0.0
  0
LINE
  5
B7AB
330
1ABC
100
AcDbEntity
  8
Visible
100
AcDbLine
 10
4759.373373642262
 20
1707.514756069188
 30
0.0
 11
4759.373373642253
 21
1731.190113969136
 31
0.0
  0
LINE
  5
B7AC
330
1ABC
100
AcDbEntity
  8
Visible
100
AcDbLine
 10
4755.373373642252
 20
1731.190113969135
 30
0.0
 11
4759.373373642253
 21
1731.190113969136
 31
0.0
  0
LINE
  5
B7AD
330
1ABC
100
AcDbEntity
  8
Visible
100
AcDbLine
 10
4755.373373642252
 20
1731.190113969135
 30
0.0
 11
4755.373373642263
 21
1707.514756069186
 31
0.0
  0
LINE
  5
B7AE
330
1ABC
100
AcDbEntity
  8
Visible
100
AcDbLine
 10
4755.373373642295
 20
1633.514756069171
 30
0.0
 11
4755.373373642308
 21
1601.725113979975
 31
0.0
  0
LINE
  5
B7B3
330
1ABC
100
AcDbEntity
  8
Visible
100
AcDbLine
 10
5179.085373642429
 20
1321.475113980157
 30
0.0
 11
5170.649373642427
 21
1321.475113980155
 31
0.0
  0
LINE
  5
B7B4
330
1ABC
100
AcDbEntity
  8
Visible
100
AcDbLine
 10
5170.649373642429
 20
1320.325113980155
 30
0.0
 11
5179.085373642429
 21
1320.325113980157
 31
0.0
  0
LINE
  5
B7B5
330
1ABC
100
AcDbEntity
  8
Visible
100
AcDbLine
 10
5179.085373642429
 20
1320.325113980157
 30
0.0
 11
5179.085373642429
 21
1321.475113980157
 31
0.0
  0
LINE
  5
B7B6
330
1ABC
100
AcDbEntity
  8
Visible
100
AcDbLine
 10
5170.649373642427
 20
1321.475113980155
 30
0.0
 11
5170.649373642429
 21
1320.325113980155
 31
0.0
  0
ARC
  5
B7BD
330
1ABC
100
AcDbEntity
  8
Visible
100
AcDbCircle
 10
5179.085373642429
 20
1322.725113980157
 30
0.0
 40
2.400000000000151
100
AcDbArc
 50
270.000000000026
 51
0.0
  0
ARC
  5
B7BE
330
1ABC
100
AcDbEntity
  8
Visible
100
AcDbCircle
 10
5179.085373642429
 20
1322.725113980157
 30
0.0
 40
1.250000000000152
100
AcDbArc
 50
270.000000000026
 51
0.0
  0
LINE
  5
B7C0
330
1ABC
100
AcDbEntity
  8
Visible
100
AcDbLine
 10
5180.335373642428
 20
1322.725113980158
 30
0.0
 11
5180.335373642428
 21
1323.525236080153
 31
0.0
  0
LINE
  5
B7C1
330
1ABC
100
AcDbEntity
  8
Visible
100
AcDbLine
 10
5181.485373642428
 20
1322.725113980158
 30
0.0
 11
5181.485373642427
 21
1323.525236080153
 31
0.0
  0
LINE
  5
B7C4
330
1ABC
100
AcDbEntity
  8
Visible
100
AcDbLine
 10
4708.087373642421
 20
1342.275098479437
 30
0.0
 11
4708.087373642423
 21
1339.875098479438
 31
0.0
  0
LINE
  5
B7C5
330
1ABC
100
AcDbEntity
  8
Visible
100
AcDbLine
 10
4755.373373642273
 20
1601.368098479457
 30
0.0
 11
4708.087373642313
 21
1601.368098479437
 31
0.0
  0
LINE
  5
B7C6
330
1ABC
100
AcDbEntity
  8
Visible
100
AcDbLine
 10
4708.087373642313
 20
1601.368098479437
 30
0.0
 11
4708.087373642313
 21
1598.968098479436
 31
0.0
  0
LINE
  5
B7C7
330
1ABC
100
AcDbEntity
  8
Visible
100
AcDbLine
 10
4708.087373642421
 20
1342.275098479437
 30
0.0
 11
4708.087373642313
 21
1598.968098479437
 31
0.0
  0
LINE
  5
B7C8
330
1ABC
100
AcDbEntity
  8
Visible
100
AcDbLine
 10
4708.087373642404
 20
1338.725098479439
 30
0.0
 11
4748.223572742383
 21
1338.725098479456
 31
0.0
  0
LINE
  5
B7C9
330
1ABC
100
AcDbEntity
  8
Visible
100
AcDbLine
 10
4708.087373642404
 20
1339.875098479439
 30
0.0
 11
4708.087373642404
 21
1338.725098479439
 31
0.0
  0
LINE
  5
B7E0
330
1ABC
100
AcDbEntity
  8
Visible
100
AcDbLine
 10
5179.335373642264
 20
1743.1901139693
 30
0.0
 11
5170.899373642264
 21
1743.190113969298
 31
0.0
  0
LINE
  5
B7E1
330
1ABC
100
AcDbEntity
  8
Visible
100
AcDbLine
 10
5170.899373642264
 20
1743.190113969298
 30
0.0
 11
5170.899373642264
 21
1742.040113969299
 31
0.0
  0
LINE
  5
B7E2
330
1ABC
100
AcDbEntity
  8
Visible
100
AcDbLine
 10
5170.899373642264
 20
1742.040113969299
 30
0.0
 11
5179.335373642265
 21
1742.040113969299
 31
0.0
  0
ARC
  5
B7E4
330
1ABC
100
AcDbEntity
  8
Visible
100
AcDbCircle
 10
5179.335373642265
 20
1740.790113969299
 30
0.0
 40
2.39999999999995
100
AcDbArc
 50
0.0
 51
90.00000000001303
  0
ARC
  5
B7E5
330
1ABC
100
AcDbEntity
  8
Visible
100
AcDbCircle
 10
5179.335373642265
 20
1740.7901139693
 30
0.0
 40
1.249999999999796
100
AcDbArc
 50
0.0
 51
90.00000000002605
  0
LINE
  5
B7E7
330
1ABC
100
AcDbEntity
  8
Visible
100
AcDbLine
 10
5180.585373642265
 20
1740.7901139693
 30
0.0
 11
5180.585373642269
 21
1731.190113969316
 31
0.0
  0
LINE
  5
B856
330
1ABC
100
AcDbEntity
  8
Visible
100
AcDbLine
 10
4755.373373642309
 20
1601.725113979975
 30
0.0
 11
4755.373373642416
 21
1350.475113980307
 31
0.0
  0
LINE
  5
B857
330
1ABC
100
AcDbEntity
  8
Visible
100
AcDbLine
 10
4755.373373642422
 20
1337.475113980307
 30
0.0
 11
4755.373373642422
 21
1332.325113979975
 31
0.0
  0
LINE
  5
B85C
330
1ABC
100
AcDbEntity
  8
Visible
100
AcDbLine
 10
4755.373373642422
 20
1332.325113979975
 30
0.0
 11
4817.591492936006
 21
1332.325113980002
 31
0.0
  0
LINE
  5
B85D
330
1ABC
100
AcDbEntity
  8
Visible
100
AcDbLine
 10
5097.03625434919
 20
1332.325113980124
 30
0.0
 11
5179.635725042725
 21
1332.32511398016
 31
0.0
  0
DIMENSION
  5
CFC9
330
1ABC
100
AcDbEntity
  8
TEXT
100
AcDbDimension
  2
*D37
 10
2418.556391509662
 20
1232.88872797748
 30
0.0
 11
3276.870368819229
 21
1232.88872797748
 31
0.0
 70
   160
  1
<>{ SPIGOT}
 42
1685.489999999977
  3
Default
100
AcDbAlignedDimension
 13
4104.046391509639
 23
1342.275098479438
 33
0.0
 14
2418.556391509662
 24
1342.275098479832
 34
0.0
 50
180.0
100
AcDbRotatedDimension
1001
ACAD
1000
DSTYLE
1002
{
1070
   289
1070
     1
1070
    74
1070
     0
1070
   271
1070
     0
1070
   272
1070
     2
1070
    48
1040
0.0
1070
    47
1040
0.0
1002
}
  0
MTEXT
  5
CFCA
330
1ABC
100
AcDbEntity
  8
TEXT
100
AcDbMText
 10
3132.373441575893
 20
1119.142256122422
 30
0.0
 40
75.0
 41
220.545279979706
 71
     1
 72
     1
  1
{\fTahoma|b0|i0;\H27.4320;\LFRONT VIEW}
  7
TITLE5
 73
     1
 44
1.0
  0
DIMENSION
  5
CFCB
330
1ABC
100
AcDbEntity
  8
TEXT
100
AcDbDimension
  2
*D38
 10
2251.83139151008
 20
1991.240837790655
 30
0.0
 11
3270.878799769749
 21
1991.240837790655
 31
0.0
 70
   160
  1
{(}<>{ OPTIONAL SPRING MTG CTRS)}
 42
2019.438999989226
  3
Default
100
AcDbAlignedDimension
 13
4271.270391499306
 23
2207.107862332123
 33
0.0
 14
2251.83139151008
 24
2207.107862332439
 34
0.0
 50
180.0
100
AcDbRotatedDimension
1001
ACAD
1000
DSTYLE
1002
{
1070
   289
1070
     1
1070
    74
1070
     0
1070
   271
1070
     0
1070
   272
1070
     2
1070
    48
1040
0.0
1070
    47
1040
0.0
1002
}
  0
DIMENSION
  5
CFCC
330
1ABC
100
AcDbEntity
  8
TEXT
100
AcDbDimension
  2
*D39
 10
4238.826391510101
 20
2070.008076446236
 30
0.0
 11
3261.076391510103
 21
2070.008076446236
 31
0.0
 70
   160
  1
<>{ MTG CTRS}
 42
1955.499999999997
  3
Default
100
AcDbAlignedDimension
 13
2283.326391510104
 23
2204.107862332419
 33
0.0
 14
4238.826391510101
 24
2204.107862332109
 34
0.0
 50
180.0
100
AcDbRotatedDimension
1001
ACAD
1000
DSTYLE
1002
{
1070
   289
1070
     1
1070
    74
1070
     0
1070
   271
1070
     0
1070
   272
1070
     2
1070
    48
1040
0.0
1070
    47
1040
0.0
1002
}
  0
MTEXT
  5
CFCD
330
1ABC
100
AcDbEntity
  8
TEXT
100
AcDbMText
 10
3141.722949246278
 20
1917.956206332902
 30
0.0
 40
75.0
 41
190.9347224235535
 71
     1
 72
     1
  1
{\fTahoma|b0|i0;\H27.4320;\LPLAN VIEW}
  7
TITLE5
 73
     1
 44
1.0
  0
DIMENSION
  5
CFCE
330
1ABC
100
AcDbEntity
  8
TEXT
100
AcDbDimension
  2
*D40
 10
4650.434974830567
 20
1601.368098479437
 30
0.0
 11
4650.434974830567
 21
1808.353309375571
 31
0.0
 70
   160
  1
<>{ SPIGOT}
 42
262.6429999999982
  3
Default
100
AcDbAlignedDimension
 13
4708.087373642404
 23
1338.725098479439
 33
0.0
 14
4708.087373642313
 24
1601.368098479437
 34
0.0
 50
90.0
100
AcDbRotatedDimension
1001
ACAD
1000
DSTYLE
1002
{
1070
   289
1070
     2
1070
    74
1070
     0
1070
   271
1070
     0
1070
   272
1070
     2
1070
    48
1040
0.0
1070
    47
1040
0.0
1002
}
  0
DIMENSION
  5
CFCF
330
1ABC
100
AcDbEntity
  8
TEXT
100
AcDbDimension
  2
*D41
 10
4679.746368487276
 20
1338.725098479439
 30
0.0
 11
4679.746368487276
 21
1209.160726623713
 31
0.0
 70
   160
  1
<>
 42
18.39998449928362
  3
Default
100
AcDbAlignedDimension
 13
5170.649373642429
 23
1320.325113980155
 33
0.0
 14
4708.087373642404
 24
1338.725098479439
 34
0.0
 50
90.0
100
AcDbRotatedDimension
1001
ACAD
1000
DSTYLE
1002
{
1070
   289
1070
     1
1070
    74
1070
     0
1070
   271
1070
     0
1070
   272
1070
     2
1070
    48
1040
0.0
1070
    47
1040
0.0
1002
}
  0
DIMENSION
  5
CFD0
330
1ABC
100
AcDbEntity
  8
TEXT
100
AcDbDimension
  2
*D42
 10
5532.0281391807
 20
1368.415236080646
 30
0.0
 11
5532.0281391807
 21
1542.423278411318
 31
0.0
 70
   160
  1
<>{ SPIGOT}
 42
355.7799999996714
  3
Default
100
AcDbAlignedDimension
 13
5493.93537364258
 23
1724.195236080318
 33
0.0
 14
5493.885373642716
 24
1368.415236080646
 34
0.0
 50
90.0
100
AcDbRotatedDimension
1001
ACAD
1000
DSTYLE
1002
{
1070
   289
1070
     1
1070
    74
1070
     0
1070
   271
1070
     0
1070
   272
1070
     2
1070
    48
1040
0.0
1070
    47
1040
0.0
1002
}
  0
DIMENSION
  5
CFD2
330
1ABC
100
AcDbEntity
  8
TEXT
100
AcDbDimension
  2
*D44
 10
4420.960798017758
 20
2749.695038032462
 30
0.0
 11
4420.960798017757
 21
2555.031344196344
 31
0.0
 70
   160
  1
<>
 42
103.4808468007563
  3
Default
100
AcDbAlignedDimension
 13
4344.324201410624
 23
2646.214191231706
 33
0.0
 14
4352.980391499233
 24
2749.695038032462
 34
0.0
 50
90.0
100
AcDbRotatedDimension
1001
ACAD
1000
DSTYLE
1002
{
1070
   289
1070
     2
1070
    74
1070
     0
1070
   271
1070
     0
1070
   272
1070
     2
1070
    48
1040
0.0
1070
    47
1040
0.0
1002
}
  0
DIMENSION
  5
CFD3
330
1ABC
100
AcDbEntity
  8
TEXT
100
AcDbDimension
  2
*D45
 10
2301.180749599383
 20
2970.70882861434
 30
0.0
 11
3262.380570549355
 21
2970.70882861434
 31
0.0
 70
   160
  1
<>{ SPIGOT}
 42
1922.399641899941
  3
Default
100
AcDbAlignedDimension
 13
4223.580391499324
 23
2930.169862332435
 33
0.0
 14
2301.180749599383
 24
2930.169862332452
 34
0.0
 50
180.0
100
AcDbRotatedDimension
1001
ACAD
1000
DSTYLE
1002
{
1070
   289
1070
     1
1070
    74
1070
     0
1070
   271
1070
     0
1070
   272
1070
     2
1070
    48
1040
0.0
1070
    47
1040
0.0
1002
}
  0
DIMENSION
  5
CFD5
330
1ABC
100
AcDbEntity
  8
TEXT
100
AcDbDimension
  2
*D47
 10
2151.681629542834
 20
1321.375236080643
 30
0.0
 11
2151.681629542833
 21
1532.745236080659
 31
0.0
 70
   160
  1
<>{ O/D}
 42
422.7400000000498
  3
Default
100
AcDbAlignedDimension
 13
2236.630391498982
 23
1744.115236080693
 33
0.0
 14
2248.53049449888
 24
1321.375236080643
 34
0.0
 50
90.0
100
AcDbRotatedDimension
1001
ACAD
1000
DSTYLE
1002
{
1070
   289
1070
     1
1070
    74
1070
     0
1070
   271
1070
     0
1070
   272
1070
     2
1070
    48
1040
0.0
1070
    47
1040
0.0
1002
}
  0
DIMENSION
  5
CFD6
330
1ABC
100
AcDbEntity
  8
TEXT
100
AcDbDimension
  2
*D48
 10
5608.191868196887
 20
1368.415236080646
 30
0.0
 11
5608.191868196887
 21
1207.491247754346
 31
0.0
 70
   160
  1
<>
 42
47.0400000004015
  3
Default
100
AcDbAlignedDimension
 13
5442.885373642756
 23
1321.375236080245
 33
0.0
 14
5493.885373642716
 24
1368.415236080646
 34
0.0
 50
90.0
100
AcDbRotatedDimension
1001
ACAD
1000
DSTYLE
1002
{
1070
   289
1070
     1
1070
    74
1070
     0
1070
   271
1070
     0
1070
   272
1070
     2
1070
    48
1040
0.0
1070
    47
1040
0.0
1002
}
  0
MTEXT
  5
CFD8
330
1ABC
100
AcDbEntity
  8
TEXT
100
AcDbMText
 10
4835.266893428719
 20
1276.6710505422
 30
0.0
 40
75.0
 41
185.3771853446966
 71
     1
 72
     1
  1
{\fTahoma|b0|i0;\H27.4320;\LSIDE VIEW}
  7
TITLE5
 73
     1
 44
1.0
  0
DIMENSION
  5
CFD9
330
1ABC
100
AcDbEntity
  8
TEXT
100
AcDbDimension
  2
*D50
 10
2283.326391510104
 20
2069.88187088735
 30
0.0
 11
2095.017727630819
 21
2069.88187088735
 31
0.0
 70
   160
  1
<>
 42
49.4950000000249
  3
Default
100
AcDbAlignedDimension
 13
2233.831391510079
 23
2183.607862332441
 33
0.0
 14
2283.326391510104
 24
2204.107862332419
 34
0.0
 50
180.0
100
AcDbRotatedDimension
1001
ACAD
1000
DSTYLE
1002
{
1070
   289
1070
     1
1070
    74
1070
     0
1070
   271
1070
     1
1070
   272
1070
     2
1070
    48
1040
0.0
1070
    47
1040
0.0
1002
}
  0
DIMENSION
  5
CFDA
330
1ABC
100
AcDbEntity
  8
TEXT
100
AcDbDimension
  2
*D51
 10
4238.826391510101
 20
2076.10786233229
 30
0.0
 11
4401.79457934048
 21
2076.10786233229
 31
0.0
 70
   160
  1
<>
 42
50.44399998920744
  3
Default
100
AcDbAlignedDimension
 13
4289.270391499309
 23
2183.607862332122
 33
0.0
 14
4238.826391510101
 24
2204.107862332109
 34
0.0
 50
180.0
100
AcDbRotatedDimension
1001
ACAD
1000
DSTYLE
1002
{
1070
   289
1070
     1
1070
    74
1070
     0
1070
   271
1070
     0
1070
   272
1070
     2
1070
    48
1040
0.0
1070
    47
1040
0.0
1002
}
  0
MTEXT
  5
CFDF
330
1ABC
100
AcDbEntity
  8
Visible
100
AcDbMText
 10
3308.78764012355
 20
3343.519773867655
 30
0.0
 40
27.43200033903122
 41
164.7920680046081
 71
     1
 72
     1
  1
{AIR\PFLOW}
  7
Note Text
 73
     1
 44
1.0
  0
DIMENSION
  5
CFE0
330
1ABC
100
AcDbEntity
  8
TEXT
100
AcDbDimension
  2
*D52
 10
2236.630391499334
 20
3182.670646736792
 30
0.0
 11
3290.005919632533
 21
3182.670646736792
 31
0.0
 70
   160
  1
<>{ O/D}
 42
2140.467195174847
  3
Default
100
AcDbAlignedDimension
 13
4377.097586674181
 23
2843.50295072611
 33
0.0
 14
2236.630391499334
 24
2869.869862332432
 34
0.0
 50
180.0
100
AcDbRotatedDimension
1001
ACAD
1000
DSTYLE
1002
{
1070
   289
1070
     1
1070
    74
1070
     0
1070
   271
1070
     0
1070
   272
1070
     2
1070
    48
1040
0.0
1070
    47
1040
0.0
1002
}
  0
DIMENSION
  5
CFE1
330
1ABC
100
AcDbEntity
  8
TEXT
100
AcDbDimension
  2
*D53
 10
4472.615707593347
 20
2842.50295072611
 30
0.0
 11
4472.615707593346
 21
2955.378054821405
 31
0.0
 70
   160
  1
<>
 42
92.80791269364772
  3
Default
100
AcDbAlignedDimension
 13
4352.980391499233
 23
2749.695038032462
 33
0.0
 14
4377.097586674181
 24
2842.50295072611
 34
0.0
 50
90.0
100
AcDbRotatedDimension
1001
ACAD
1000
DSTYLE
1002
{
1070
   289
1070
     2
1070
    74
1070
     0
1070
   271
1070
     0
1070
   272
1070
     0
1070
    48
1040
0.0
1070
    47
1040
0.0
1002
}
  0
DIMENSION
  5
CFE2
330
1ABC
100
AcDbEntity
  8
TEXT
100
AcDbDimension
  2
*D54
 10
4417.047486418097
 20
2842.50295072611
 30
0.0
 11
4417.047486418097
 21
3043.556719298327
 31
0.0
 70
   160
  1
<>
 42
87.6669116063249
  3
Default
100
AcDbAlignedDimension
 13
4223.580391499324
 23
2930.169862332435
 33
0.0
 14
4377.097586674181
 24
2842.50295072611
 34
0.0
 50
90.0
100
AcDbRotatedDimension
1001
ACAD
1000
DSTYLE
1002
{
1070
   289
1070
     2
1070
    74
1070
     0
1070
   271
1070
     0
1070
   272
1070
     2
1070
    48
1040
0.0
1070
    47
1040
0.0
1002
}
  0
MTEXT
  5
CFE3
330
1ABC
100
AcDbEntity
  8
Visible
100
AcDbMText
 10
5625.614746959536
 20
1587.140229662273
 30
0.0
 40
27.43200033903122
 41
164.7920680046081
 71
     1
 72
     1
  1
{AIR\PFLOW}
  7
Note Text
 73
     1
 44
1.0
  0
MTEXT
  5
CFE4
330
1ABC
100
AcDbEntity
  8
Visible
100
AcDbMText
 10
4529.545014499896
 20
1549.979707180159
 30
0.0
 40
27.43200033903122
 41
164.7920680046081
 71
     1
 72
     1
  1
{AIR\PFLOW}
  7
Note Text
 73
     1
 44
1.0
  0
DIMENSION
  5
CFE7
330
1ABC
100
AcDbEntity
  8
TEXT
100
AcDbDimension
  2
*D55
 10
2075.130891499329
 20
2855.869862332442
 30
0.0
 11
2075.130891499329
 21
3175.177517569288
 31
0.0
 70
   160
  1
{(}<>{ OPTIONAL\P SPRING MTG CTRS)}
 42
648.7620000000024
  3
Default
100
AcDbAlignedDimension
 13
2251.83139151008
 23
2207.107862332439
 33
0.0
 14
2219.130391499327
 24
2855.869862332442
 34
0.0
 50
90.0
100
AcDbRotatedDimension
1001
ACAD
1000
DSTYLE
1002
{
1070
   289
1070
     2
1070
    74
1070
     0
1070
   145
1040
-0.25
1070
   271
1070
     0
1070
   272
1070
     2
1070
    48
1040
0.0
1070
    47
1040
0.0
1002
}
  0
DIMENSION
  5
CFE8
330
1ABC
100
AcDbEntity
  8
TEXT
100
AcDbDimension
  2
*D56
 10
2184.369763998764
 20
2210.107862332419
 30
0.0
 11
2184.369763998763
 21
2514.079960056686
 31
0.0
 70
   160
  1
<>{ MTG CTRS}
 42
645.7620000000133
  3
Default
100
AcDbAlignedDimension
 13
2249.125391499334
 23
2855.869862332433
 33
0.0
 14
2281.826391510105
 24
2210.107862332419
 34
0.0
 50
90.0
100
AcDbRotatedDimension
1001
ACAD
1000
DSTYLE
1002
{
1070
   289
1070
     1
1070
    74
1070
     0
1070
   271
1070
     0
1070
   272
1070
     2
1070
    48
1040
0.0
1070
    47
1040
0.0
1002
}
  0
DIMENSION
  5
CFE9
330
1ABC
100
AcDbEntity
  8
TEXT
100
AcDbDimension
  2
*D57
 10
2128.856852983322
 20
2144.371862332415
 30
0.0
 11
2128.856852983322
 21
2538.070862332442
 31
0.0
 70
   160
  1
<>{ O/D}
 42
785.798000000037
  3
Default
100
AcDbAlignedDimension
 13
2301.180749599383
 23
2930.169862332452
 33
0.0
 14
2418.55639151006
 24
2144.371862332415
 34
0.0
 50
90.0
100
AcDbRotatedDimension
1001
ACAD
1000
DSTYLE
1002
{
1070
   289
1070
     1
1070
    74
1070
     0
1070
   271
1070
     0
1070
   272
1070
     2
1070
    48
1040
0.0
1070
    47
1040
0.0
1002
}
  0
MTEXT
  5
CFEC
330
1ABC
100
AcDbEntity
  8
Visible
100
AcDbMText
 10
3155.523143713689
 20
2744.034796677076
 30
0.0
 40
27.43200033903122
 41
164.7920680046081
 71
     1
 72
     1
  1
{COIL BOX}
  7
Note Text
 73
     1
 44
1.0
  0
MTEXT
  5
D7E8
330
1ABC
100
AcDbEntity
  8
Visible
100
AcDbMText
 10
3155.523143713689
 20
2409.783732357833
 30
0.0
 40
27.43200033903122
 41
164.7920680046081
 71
     1
 72
     1
  1
FAN BOX
  7
Note Text
 73
     1
 44
1.0
  0
ENDSEC
  0
SECTION
  2
OBJECTS
  0
DICTIONARY
  5
1A5D
330
0
100
AcDbDictionary
281
     1
  3
ACAD_2007HEADERVARS_RT
350
E0A6
  3
ACAD_CIP_PREVIOUS_PRODUCT_INFO
350
1B0F
  3
ACAD_COLOR
350
1AB3
  3
ACAD_GROUP
350
1A5E
  3
ACAD_LAYOUT
350
1AB2
  3
ACAD_MATERIAL
350
1A61
  3
ACAD_MLEADERSTYLE
350
1AB6
  3
ACAD_MLINESTYLE
350
1AAF
  3
ACAD_PLOTSETTINGS
350
1AB1
  3
ACAD_PLOTSTYLENAME
350
1A5F
  3
ACAD_SCALELIST
350
1A93
  3
ACAD_TABLESTYLE
350
1AB4
  3
ACAD_VISUALSTYLE
350
1A7A
  3
ACDB_RECOMPOSE_DATA
350
E0A5
  3
AcDbVariableDictionary
350
71E8
  3
AcmDictionary
350
1B35
  3
AMG
350
1B10
  3
AMGSNAPSETTINGS
350
1BA4
  0
DICTIONARY
  5
71AC
330
1A59
100
AcDbDictionary
280
     1
281
     1
  0
DICTIONARY
  5
719F
330
1A53
100
AcDbDictionary
280
     1
281
     1
  3
ACAD_LAYERSTATES
360
71A0
  0
DICTIONARY
  5
7186
330
1AA5
100
AcDbDictionary
280
     1
281
     1
  3
ADSK_XREC_LAYER_RECONCILED
360
7187
  0
DICTIONARY
  5
7188
330
1AC0
100
AcDbDictionary
280
     1
281
     1
  3
ADSK_XREC_LAYER_RECONCILED
360
7189
  0
DICTIONARY
  5
718A
330
1AD5
100
AcDbDictionary
280
     1
281
     1
  3
ADSK_XREC_LAYER_RECONCILED
360
718B
  0
DICTIONARY
  5
718C
330
1AD6
100
AcDbDictionary
280
     1
281
     1
  3
ADSK_XREC_LAYER_RECONCILED
360
718D
  0
DICTIONARY
  5
718E
330
1AD7
100
AcDbDictionary
280
     1
281
     1
  3
ADSK_XREC_LAYER_RECONCILED
360
718F
  0
DICTIONARY
  5
7190
330
1AD8
100
AcDbDictionary
280
     1
281
     1
  3
ADSK_XREC_LAYER_RECONCILED
360
7191
  0
DICTIONARY
  5
7192
330
1C3C
100
AcDbDictionary
280
     1
281
     1
  3
ADSK_XREC_LAYER_RECONCILED
360
7193
  0
DICTIONARY
  5
719A
330
1C40
100
AcDbDictionary
280
     1
281
     1
  3
ADSK_XREC_LAYER_RECONCILED
360
719B
  0
DICTIONARY
  5
1BAE
330
1BAD
100
AcDbDictionary
280
     1
281
     1
  3
ACAD_SORTENTS
360
1BAF
  0
DICTIONARY
  5
E0A6
102
{ACAD_REACTORS
330
1A5D
102
}
330
1A5D
100
AcDbDictionary
281
     1
  3
DIMARCSYM
350
E0A7
  3
DIMLTEX1
350
E0A9
  3
DIMLTEX2
350
E0AA
  3
DIMLTYPE
350
E0A8
  0
XRECORD
  5
1B0F
102
{ACAD_REACTORS
330
1A5D
102
}
330
1A5D
100
AcDbXrecord
280
     1
300
AMECH_PP
300
2012
300
PDSU_F_S
  0
DICTIONARY
  5
1AB3
102
{ACAD_REACTORS
330
1A5D
102
}
330
1A5D
100
AcDbDictionary
281
     1
  0
DICTIONARY
  5
1A5E
102
{ACAD_REACTORS
330
1A5D
102
}
330
1A5D
100
AcDbDictionary
281
     1
  0
DICTIONARY
  5
1AB2
102
{ACAD_REACTORS
330
1A5D
102
}
330
1A5D
100
AcDbDictionary
281
     1
  3
Layout1
350
1ABB
  3
Model
350
1ABF
  0
DICTIONARY
  5
1A61
102
{ACAD_REACTORS
330
1A5D
102
}
330
1A5D
100
AcDbDictionary
281
     1
  3
ByBlock
350
1A6A
  3
ByLayer
350
1A62
  3
Global
350
1A72
  0
DICTIONARY
  5
1AB6
102
{ACAD_REACTORS
330
1A5D
102
}
330
1A5D
100
AcDbDictionary
281
     1
  3
Standard
350
1AB7
  0
DICTIONARY
  5
1AAF
102
{ACAD_REACTORS
330
1A5D
102
}
330
1A5D
100
AcDbDictionary
281
     1
  3
Standard
350
1AB0
  0
DICTIONARY
  5
1AB1
102
{ACAD_REACTORS
330
1A5D
102
}
330
1A5D
100
AcDbDictionary
281
     1
  0
ACDBDICTIONARYWDFLT
  5
1A5F
102
{ACAD_REACTORS
330
1A5D
102
}
330
1A5D
100
AcDbDictionary
281
     1
  3
Normal
350
1A60
100
AcDbDictionaryWithDefault
340
1A60
  0
DICTIONARY
  5
1A93
102
{ACAD_REACTORS
330
1A5D
102
}
330
1A5D
100
AcDbDictionary
281
     1
  3
A0
350
1A94
  3
A1
350
1A95
  3
A2
350
1A96
  3
A3
350
1A97
  3
A4
350
1A98
  3
A5
350
1A99
  3
A6
350
1A9A
  3
A7
350
1A9B
  3
A8
350
1A9C
  3
A9
350
1A9D
  3
B0
350
1A9E
  3
B1
350
1A9F
  3
B2
350
1AA0
  3
B3
350
1AA1
  3
B4
350
1AA2
  3
B5
350
1AA3
  3
B6
350
1AA4
  0
DICTIONARY
  5
1AB4
102
{ACAD_REACTORS
330
1A5D
102
}
330
1A5D
100
AcDbDictionary
281
     1
  3
Standard
350
1AB5
  0
DICTIONARY
  5
1A7A
102
{ACAD_REACTORS
330
1A5D
102
}
330
1A5D
100
AcDbDictionary
281
     1
  3
2dWireframe
350
1A80
  3
Basic
350
1A7F
  3
Brighten
350
1A86
  3
ColorChange
350
1A8A
  3
Conceptual
350
1A83
  3
Dim
350
1A85
  3
EdgeColorOff
350
1A92
  3
Facepattern
350
1A89
  3
Flat
350
1A7B
  3
FlatWithEdges
350
1A7C
  3
Gouraud
350
1A7D
  3
GouraudWithEdges
350
1A7E
  3
Hidden
350
1A82
  3
JitterOff
350
1A90
  3
Linepattern
350
1A88
  3
OverhangOff
350
1A91
  3
Realistic
350
1A84
  3
Shaded
350
1A8F
  3
Shaded with edges
350
1A8E
  3
Shades of Gray
350
1A8B
  3
Sketchy
350
1A8C
  3
Thicken
350
1A87
  3
Wireframe
350
1A81
  3
X-Ray
350
1A8D
  0
XRECORD
  5
E0A5
102
{ACAD_REACTORS
330
1A5D
102
}
330
1A5D
100
AcDbXrecord
280
     1
 90
        1
330
1AB5
330
CFCE
330
CFD2
330
CFE1
330
CFE2
330
CFE7
  0
DICTIONARY
  5
71E8
102
{ACAD_REACTORS
330
1A5D
102
}
330
1A5D
100
AcDbDictionary
281
     1
  3
CANNOSCALE
350
71EB
  3
CMLEADERSTYLE
350
71EA
  3
CTABLESTYLE
350
71E9
  3
XCLIPFRAME
350
E0A3
  0
DICTIONARY
  5
1B35
102
{ACAD_REACTORS
330
1A5D
102
}
330
1A5D
100
AcDbDictionary
281
     1
  3
AcmStdDictionary
350
1B40
  3
AMDTSECTSYM_ARROWCOLOR
350
7201
  0
DICTIONARY
  5
1B10
102
{ACAD_REACTORS
330
1A5D
102
}
330
1A5D
100
AcDbDictionary
281
     1
  0
DICTIONARY
  5
1BA4
102
{ACAD_REACTORS
330
1A5D
102
}
330
1A5D
100
AcDbDictionary
281
     1
  0
DICTIONARY
  5
71A0
102
{ACAD_REACTORS
330
719F
102
}
330
719F
100
AcDbDictionary
281
     1
  0
XRECORD
  5
7187
102
{ACAD_REACTORS
330
7186
102
}
330
7186
100
AcDbXrecord
280
     1
290
     1
  0
XRECORD
  5
7189
102
{ACAD_REACTORS
330
7188
102
}
330
7188
100
AcDbXrecord
280
     1
290
     1
  0
XRECORD
  5
718B
102
{ACAD_REACTORS
330
718A
102
}
330
718A
100
AcDbXrecord
280
     1
290
     1
  0
XRECORD
  5
718D
102
{ACAD_REACTORS
330
718C
102
}
330
718C
100
AcDbXrecord
280
     1
290
     1
  0
XRECORD
  5
718F
102
{ACAD_REACTORS
330
718E
102
}
330
718E
100
AcDbXrecord
280
     1
290
     1
  0
XRECORD
  5
7191
102
{ACAD_REACTORS
330
7190
102
}
330
7190
100
AcDbXrecord
280
     1
290
     1
  0
XRECORD
  5
7193
102
{ACAD_REACTORS
330
7192
102
}
330
7192
100
AcDbXrecord
280
     1
290
     1
  0
XRECORD
  5
719B
102
{ACAD_REACTORS
330
719A
102
}
330
719A
100
AcDbXrecord
280
     1
290
     1
  0
SORTENTSTABLE
  5
1BAF
102
{ACAD_REACTORS
330
1BAE
102
}
330
1BAE
100
AcDbSortentsTable
330
1BAD
  0
XRECORD
  5
E0A7
102
{ACAD_REACTORS
330
E0A6
102
}
330
E0A6
100
AcDbXrecord
280
     1
 70
     1
  0
XRECORD
  5
E0A9
102
{ACAD_REACTORS
330
E0A6
102
}
330
E0A6
100
AcDbXrecord
280
     1
340
1AAB
  0
XRECORD
  5
E0AA
102
{ACAD_REACTORS
330
E0A6
102
}
330
E0A6
100
AcDbXrecord
280
     1
340
1AAB
  0
XRECORD
  5
E0A8
102
{ACAD_REACTORS
330
E0A6
102
}
330
E0A6
100
AcDbXrecord
280
     1
340
1AAB
  0
LAYOUT
  5
1ABB
102
{ACAD_REACTORS
330
1AB2
102
}
330
1AB2
100
AcDbPlotSettings
  1

  2
PDF Complete
  4

  6

 40
0.0
 41
0.0
 42
0.0
 43
0.0
 44
0.0
 45
0.0
 46
0.0
 47
0.0
 48
0.0
 49
0.0
140
0.0
141
0.0
142
1.0
143
1.0
 70
   688
 72
     0
 73
     0
 74
     5
  7

 75
    16
147
1.0
 76
     0
 77
     2
 78
   300
148
0.0
149
0.0
100
AcDbLayout
  1
Layout1
 70
     0
 71
     1
 10
0.0
 20
0.0
 11
12.0
 21
9.0
 12
0.0
 22
0.0
 32
0.0
 14
1.000000000000000E+20
 24
1.000000000000000E+20
 34
1.000000000000000E+20
 15
-1.000000000000000E+20
 25
-1.000000000000000E+20
 35
-1.000000000000000E+20
146
0.0
 13
0.0
 23
0.0
 33
0.0
 16
1.0
 26
0.0
 36
0.0
 17
0.0
 27
1.0
 37
0.0
 76
     0
330
1AB8
  0
LAYOUT
  5
1ABF
102
{ACAD_XDICTIONARY
360
71A5
102
}
102
{ACAD_REACTORS
330
1AB2
102
}
330
1AB2
100
AcDbPlotSettings
  1

  2
PDF Complete
  4

  6

 40
0.0
 41
0.0
 42
0.0
 43
0.0
 44
0.0
 45
0.0
 46
0.0
 47
0.0
 48
0.0
 49
0.0
140
0.0
141
0.0
142
1.0
143
1.0
 70
  1712
 72
     0
 73
     0
 74
     0
  7

 75
     0
147
1.0
 76
     0
 77
     2
 78
   300
148
0.0
149
0.0
100
AcDbLayout
  1
Model
 70
     1
 71
     0
 10
0.0
 20
0.0
 11
12.0
 21
9.0
 12
0.0
 22
0.0
 32
0.0
 14
0.0
 24
0.0
 34
0.0
 15
0.0
 25
0.0
 35
0.0
146
0.0
 13
0.0
 23
0.0
 33
0.0
 16
1.0
 26
0.0
 36
0.0
 17
0.0
 27
1.0
 37
0.0
 76
     0
330
1ABC
331
1AC2
  0
MATERIAL
  5
1A6A
102
{ACAD_XDICTIONARY
360
1A6B
102
}
102
{ACAD_REACTORS
330
1A61
102
}
330
1A61
100
AcDbMaterial
  1
ByBlock
 72
     0
 43
0.0208333333333333
 43
0.0
 43
0.0
 43
0.0
 43
0.0
 43
0.0208333333333333
 43
0.0
 43
0.0
 43
0.0
 43
0.0
 43
1.0
 43
0.0
 43
0.0
 43
0.0
 43
0.0
 43
1.0
 77
     0
 47
0.0208333333333333
 47
0.0
 47
0.0
 47
0.0
 47
0.0
 47
0.0208333333333333
 47
0.0
 47
0.0
 47
0.0
 47
0.0
 47
1.0
 47
0.0
 47
0.0
 47
0.0
 47
0.0
 47
1.0
171
     0
 49
0.0208333333333333
 49
0.0
 49
0.0
 49
0.0
 49
0.0
 49
0.0208333333333333
 49
0.0
 49
0.0
 49
0.0
 49
0.0
 49
1.0
 49
0.0
 49
0.0
 49
0.0
 49
0.0
 49
1.0
175
     0
142
0.0208333333333333
142
0.0
142
0.0
142
0.0
142
0.0
142
0.0208333333333333
142
0.0
142
0.0
142
0.0
142
0.0
142
1.0
142
0.0
142
0.0
142
0.0
142
0.0
142
1.0
179
     0
144
0.0208333333333333
144
0.0
144
0.0
144
0.0
144
0.0
144
0.0208333333333333
144
0.0
144
0.0
144
0.0
144
0.0
144
1.0
144
0.0
144
0.0
144
0.0
144
0.0
144
1.0
147
0.0208333333333333
147
0.0
147
0.0
147
0.0
147
0.0
147
0.0208333333333333
147
0.0
147
0.0
147
0.0
147
0.0
147
1.0
147
0.0
147
0.0
147
0.0
147
0.0
147
1.0
  0
MATERIAL
  5
1A62
102
{ACAD_XDICTIONARY
360
1A63
102
}
102
{ACAD_REACTORS
330
1A61
102
}
330
1A61
100
AcDbMaterial
  1
ByLayer
 72
     0
 43
0.0208333333333333
 43
0.0
 43
0.0
 43
0.0
 43
0.0
 43
0.0208333333333333
 43
0.0
 43
0.0
 43
0.0
 43
0.0
 43
1.0
 43
0.0
 43
0.0
 43
0.0
 43
0.0
 43
1.0
 77
     0
 47
0.0208333333333333
 47
0.0
 47
0.0
 47
0.0
 47
0.0
 47
0.0208333333333333
 47
0.0
 47
0.0
 47
0.0
 47
0.0
 47
1.0
 47
0.0
 47
0.0
 47
0.0
 47
0.0
 47
1.0
171
     0
 49
0.0208333333333333
 49
0.0
 49
0.0
 49
0.0
 49
0.0
 49
0.0208333333333333
 49
0.0
 49
0.0
 49
0.0
 49
0.0
 49
1.0
 49
0.0
 49
0.0
 49
0.0
 49
0.0
 49
1.0
175
     0
142
0.0208333333333333
142
0.0
142
0.0
142
0.0
142
0.0
142
0.0208333333333333
142
0.0
142
0.0
142
0.0
142
0.0
142
1.0
142
0.0
142
0.0
142
0.0
142
0.0
142
1.0
179
     0
144
0.0208333333333333
144
0.0
144
0.0
144
0.0
144
0.0
144
0.0208333333333333
144
0.0
144
0.0
144
0.0
144
0.0
144
1.0
144
0.0
144
0.0
144
0.0
144
0.0
144
1.0
147
0.0208333333333333
147
0.0
147
0.0
147
0.0
147
0.0
147
0.0208333333333333
147
0.0
147
0.0
147
0.0
147
0.0
147
1.0
147
0.0
147
0.0
147
0.0
147
0.0
147
1.0
  0
MATERIAL
  5
1A72
102
{ACAD_XDICTIONARY
360
1A73
102
}
102
{ACAD_REACTORS
330
1A61
102
}
330
1A61
100
AcDbMaterial
  1
Global
 72
     0
 43
0.0208333333333333
 43
0.0
 43
0.0
 43
0.0
 43
0.0
 43
0.0208333333333333
 43
0.0
 43
0.0
 43
0.0
 43
0.0
 43
1.0
 43
0.0
 43
0.0
 43
0.0
 43
0.0
 43
1.0
 77
     0
 47
0.0208333333333333
 47
0.0
 47
0.0
 47
0.0
 47
0.0
 47
0.0208333333333333
 47
0.0
 47
0.0
 47
0.0
 47
0.0
 47
1.0
 47
0.0
 47
0.0
 47
0.0
 47
0.0
 47
1.0
171
     0
 49
0.0208333333333333
 49
0.0
 49
0.0
 49
0.0
 49
0.0
 49
0.0208333333333333
 49
0.0
 49
0.0
 49
0.0
 49
0.0
 49
1.0
 49
0.0
 49
0.0
 49
0.0
 49
0.0
 49
1.0
175
     0
142
0.0208333333333333
142
0.0
142
0.0
142
0.0
142
0.0
142
0.0208333333333333
142
0.0
142
0.0
142
0.0
142
0.0
142
1.0
142
0.0
142
0.0
142
0.0
142
0.0
142
1.0
179
     0
144
0.0208333333333333
144
0.0
144
0.0
144
0.0
144
0.0
144
0.0208333333333333
144
0.0
144
0.0
144
0.0
144
0.0
144
1.0
144
0.0
144
0.0
144
0.0
144
0.0
144
1.0
147
0.0208333333333333
147
0.0
147
0.0
147
0.0
147
0.0
147
0.0208333333333333
147
0.0
147
0.0
147
0.0
147
0.0
147
1.0
147
0.0
147
0.0
147
0.0
147
0.0
147
1.0
  0
MLEADERSTYLE
  5
1AB7
102
{ACAD_REACTORS
330
1AB6
102
}
330
1AB6
100
AcDbMLeaderStyle
170
     2
171
     1
172
     0
 90
        2
 40
0.0
 41
0.0
173
     1
 91
-1056964608
340
1AAB
 92
       -2
290
     1
 42
0.09
291
     1
 43
0.36
  3
Standard
 44
0.18
300

342
1AA6
174
     1
178
     6
175
     1
176
     0
 93
-1056964608
 45
0.18
292
     0
297
     0
 46
0.18
 94
-1056964608
 47
1.0
 49
1.0
140
1.0
293
     1
141
0.0
294
     1
177
     0
142
1.0
295
     0
296
     0
143
0.125
1001
ACAD_MLEADERVER
1070
     2
  0
MLINESTYLE
  5
1AB0
102
{ACAD_REACTORS
330
1AAF
102
}
330
1AAF
100
AcDbMlineStyle
  2
STANDARD
 70
     0
  3

 62
   256
 51
90.0
 52
90.0
 71
     2
 49
0.5
 62
   256
  6
BYLAYER
 49
-0.5
 62
   256
  6
BYLAYER
  0
ACDBPLACEHOLDER
  5
1A60
102
{ACAD_REACTORS
330
1A5F
102
}
330
1A5F
  0
SCALE
  5
1A94
102
{ACAD_REACTORS
330
1A93
102
}
330
1A93
100
AcDbScale
 70
     0
300
1:1
140
1.0
141
1.0
290
     1
  0
SCALE
  5
1A95
102
{ACAD_REACTORS
330
1A93
102
}
330
1A93
100
AcDbScale
 70
     0
300
1/128" = 1'-0"
140
0.0078125
141
12.0
290
     0
  0
SCALE
  5
1A96
102
{ACAD_REACTORS
330
1A93
102
}
330
1A93
100
AcDbScale
 70
     0
300
1/64" = 1'-0"
140
0.015625
141
12.0
290
     0
  0
SCALE
  5
1A97
102
{ACAD_REACTORS
330
1A93
102
}
330
1A93
100
AcDbScale
 70
     0
300
1/32" = 1'-0"
140
0.03125
141
12.0
290
     0
  0
SCALE
  5
1A98
102
{ACAD_REACTORS
330
1A93
102
}
330
1A93
100
AcDbScale
 70
     0
300
1/16" = 1'-0"
140
0.0625
141
12.0
290
     0
  0
SCALE
  5
1A99
102
{ACAD_REACTORS
330
1A93
102
}
330
1A93
100
AcDbScale
 70
     0
300
3/32" = 1'-0"
140
0.09375
141
12.0
290
     0
  0
SCALE
  5
1A9A
102
{ACAD_REACTORS
330
1A93
102
}
330
1A93
100
AcDbScale
 70
     0
300
1/8" = 1'-0"
140
0.125
141
12.0
290
     0
  0
SCALE
  5
1A9B
102
{ACAD_REACTORS
330
1A93
102
}
330
1A93
100
AcDbScale
 70
     0
300
3/16" = 1'-0"
140
0.1875
141
12.0
290
     0
  0
SCALE
  5
1A9C
102
{ACAD_REACTORS
330
1A93
102
}
330
1A93
100
AcDbScale
 70
     0
300
1/4" = 1'-0"
140
0.25
141
12.0
290
     0
  0
SCALE
  5
1A9D
102
{ACAD_REACTORS
330
1A93
102
}
330
1A93
100
AcDbScale
 70
     0
300
3/8" = 1'-0"
140
0.375
141
12.0
290
     0
  0
SCALE
  5
1A9E
102
{ACAD_REACTORS
330
1A93
102
}
330
1A93
100
AcDbScale
 70
     0
300
1/2" = 1'-0"
140
0.5
141
12.0
290
     0
  0
SCALE
  5
1A9F
102
{ACAD_REACTORS
330
1A93
102
}
330
1A93
100
AcDbScale
 70
     0
300
3/4" = 1'-0"
140
0.75
141
12.0
290
     0
  0
SCALE
  5
1AA0
102
{ACAD_REACTORS
330
1A93
102
}
330
1A93
100
AcDbScale
 70
     0
300
1" = 1'-0"
140
1.0
141
12.0
290
     0
  0
SCALE
  5
1AA1
102
{ACAD_REACTORS
330
1A93
102
}
330
1A93
100
AcDbScale
 70
     0
300
1-1/2" = 1'-0"
140
1.5
141
12.0
290
     0
  0
SCALE
  5
1AA2
102
{ACAD_REACTORS
330
1A93
102
}
330
1A93
100
AcDbScale
 70
     0
300
3" = 1'-0"
140
3.0
141
12.0
290
     0
  0
SCALE
  5
1AA3
102
{ACAD_REACTORS
330
1A93
102
}
330
1A93
100
AcDbScale
 70
     0
300
6" = 1'-0"
140
6.0
141
12.0
290
     0
  0
SCALE
  5
1AA4
102
{ACAD_REACTORS
330
1A93
102
}
330
1A93
100
AcDbScale
 70
     0
300
1'-0" = 1'-0"
140
12.0
141
12.0
290
     0
  0
TABLESTYLE
  5
1AB5
102
{ACAD_XDICTIONARY
360
71A7
102
}
102
{ACAD_REACTORS
330
1AB4
102
}
330
1AB4
100
AcDbTableStyle
  3
Standard
 70
     0
 71
     0
 40
0.06
 41
0.06
280
     0
281
     0
  7
STANDARD
140
0.18
170
     2
 62
     0
 63
     7
283
     0
274
    -2
284
     1
 64
     0
275
    -2
285
     1
 65
     0
276
    -2
286
     1
 66
     0
277
    -2
287
     1
 67
     0
278
    -2
288
     1
 68
     0
279
    -2
289
     1
 69
     0
  7
STANDARD
140
0.25
170
     5
 62
     0
 63
     7
283
     0
274
    -2
284
     1
 64
     0
275
    -2
285
     1
 65
     0
276
    -2
286
     1
 66
     0
277
    -2
287
     1
 67
     0
278
    -2
288
     1
 68
     0
279
    -2
289
     1
 69
     0
  7
STANDARD
140
0.18
170
     5
 62
     0
 63
     7
283
     0
274
    -2
284
     1
 64
     0
275
    -2
285
     1
 65
     0
276
    -2
286
     1
 66
     0
277
    -2
287
     1
 67
     0
278
    -2
288
     1
 68
     0
279
    -2
289
     1
 69
     0
  0
VISUALSTYLE
  5
1A80
102
{ACAD_XDICTIONARY
360
E0B8
102
}
102
{ACAD_REACTORS
330
1A7A
102
}
330
1A7A
100
AcDbVisualStyle
  2
2dWireframe
 70
     4
 71
     0
 72
     2
 73
     0
 90
        0
 40
-0.6
 41
-30.0
 62
     5
 63
     7
421
 16777215
 74
     1
 91
        4
 64
     7
 65
   257
 75
     1
175
     1
 42
1.0
 92
        0
 66
   257
 43
1.0
 76
     1
 77
     6
 78
     2
 67
     7
 79
     5
170
     0
171
     0
290
     0
174
     0
 93
        1
 44
0.0
173
     0
291
     0
 45
0.0
1001
ACAD
1000
AcDbSavedByObjectVersion
1070
     0
  0
VISUALSTYLE
  5
1A7F
102
{ACAD_XDICTIONARY
360
E0B6
102
}
102
{ACAD_REACTORS
330
1A7A
102
}
330
1A7A
100
AcDbVisualStyle
  2
Basic
 70
     7
 71
     1
 72
     0
 73
     1
 90
        0
 40
-0.6
 41
-30.0
 62
     5
 63
     7
421
 16777215
 74
     0
 91
        4
 64
     7
 65
   257
 75
     1
175
     1
 42
1.0
 92
        8
 66
     7
 43
1.0
 76
     1
 77
     6
 78
     2
 67
     7
 79
     5
170
     0
171
     0
290
     0
174
     0
 93
        1
 44
0.0
173
     0
291
     1
 45
0.0
1001
ACAD
1000
AcDbSavedByObjectVersion
1070
     0
  0
VISUALSTYLE
  5
1A86
102
{ACAD_XDICTIONARY
360
E0C4
102
}
102
{ACAD_REACTORS
330
1A7A
102
}
330
1A7A
100
AcDbVisualStyle
  2
Brighten
 70
    12
 71
     2
 72
     2
 73
     0
 90
        0
 40
-0.6
 41
-30.0
 62
     5
 63
     7
421
 16777215
 74
     1
 91
        4
 64
     7
 65
   257
 75
     1
175
     1
 42
1.0
 92
        8
 66
     7
 43
1.0
 76
     1
 77
     6
 78
     2
 67
     7
 79
     5
170
     0
171
     0
290
     0
174
     0
 93
        1
 44
50.0
173
     0
291
     1
 45
0.0
1001
ACAD
1000
AcDbSavedByObjectVersion
1070
     0
  0
VISUALSTYLE
  5
1A8A
102
{ACAD_XDICTIONARY
360
E0CC
102
}
102
{ACAD_REACTORS
330
1A7A
102
}
330
1A7A
100
AcDbVisualStyle
  2
ColorChange
 70
    16
 71
     2
 72
     2
 73
     3
 90
        0
 40
-0.6
 41
-30.0
 62
     5
 63
     8
421
  8421504
 74
     1
 91
        4
 64
     7
 65
   257
 75
     1
175
     1
 42
1.0
 92
        8
 66
     8
424
  8421504
 43
1.0
 76
     1
 77
     6
 78
     2
 67
     7
 79
     5
170
     0
171
     0
290
     0
174
     0
 93
        1
 44
0.0
173
     0
291
     1
 45
0.0
1001
ACAD
1000
AcDbSavedByObjectVersion
1070
     0
  0
VISUALSTYLE
  5
1A83
102
{ACAD_XDICTIONARY
360
E0BE
102
}
102
{ACAD_REACTORS
330
1A7A
102
}
330
1A7A
100
AcDbVisualStyle
  2
Conceptual
 70
     9
 71
     3
 72
     2
 73
     0
 90
        0
 40
-0.6
 41
-30.0
 62
     5
 63
     7
421
 16777215
 74
     2
 91
        2
 64
     7
 65
   257
 75
     1
175
     1
 42
179.0
 92
        8
 66
     7
 43
1.0
 76
     1
 77
     6
 78
     2
 67
     7
 79
     3
170
     0
171
     0
290
     0
174
     0
 93
        1
 44
0.0
173
     0
291
     0
 45
0.0
1001
ACAD
1000
AcDbSavedByObjectVersion
1070
     0
  0
VISUALSTYLE
  5
1A85
102
{ACAD_XDICTIONARY
360
E0C2
102
}
102
{ACAD_REACTORS
330
1A7A
102
}
330
1A7A
100
AcDbVisualStyle
  2
Dim
 70
    11
 71
     2
 72
     2
 73
     0
 90
        0
 40
-0.6
 41
-30.0
 62
     5
 63
     7
421
 16777215
 74
     1
 91
        4
 64
     7
 65
   257
 75
     1
175
     1
 42
1.0
 92
        8
 66
     7
 43
1.0
 76
     1
 77
     6
 78
     2
 67
     7
 79
     5
170
     0
171
     0
290
     0
174
     0
 93
        1
 44
-50.0
173
     0
291
     1
 45
0.0
1001
ACAD
1000
AcDbSavedByObjectVersion
1070
     0
  0
VISUALSTYLE
  5
1A92
102
{ACAD_XDICTIONARY
360
E0DC
102
}
102
{ACAD_REACTORS
330
1A7A
102
}
330
1A7A
100
AcDbVisualStyle
  2
EdgeColorOff
 70
    22
 71
     2
 72
     2
 73
     0
 90
        0
 40
-0.6
 41
-30.0
 62
     5
 63
     7
421
 16777215
 74
     1
 91
        4
 64
     7
 65
   257
 75
     1
175
     1
 42
1.0
 92
        8
 66
     7
 43
1.0
 76
     1
 77
     6
 78
     2
 67
     7
 79
     5
170
     0
171
     0
290
     0
174
     0
 93
        1
 44
0.0
173
     0
291
     1
 45
0.0
1001
ACAD
1000
AcDbSavedByObjectVersion
1070
     0
  0
VISUALSTYLE
  5
1A89
102
{ACAD_XDICTIONARY
360
E0CA
102
}
102
{ACAD_REACTORS
330
1A7A
102
}
330
1A7A
100
AcDbVisualStyle
  2
Facepattern
 70
    15
 71
     2
 72
     2
 73
     0
 90
        0
 40
-0.6
 41
-30.0
 62
     5
 63
     7
421
 16777215
 74
     1
 91
        4
 64
     7
 65
   257
 75
     1
175
     1
 42
1.0
 92
        8
 66
     7
 43
1.0
 76
     1
 77
     6
 78
     2
 67
     7
 79
     5
170
     0
171
     0
290
     0
174
     0
 93
        1
 44
0.0
173
     0
291
     1
 45
0.0
1001
ACAD
1000
AcDbSavedByObjectVersion
1070
     0
  0
VISUALSTYLE
  5
1A7B
102
{ACAD_XDICTIONARY
360
E0AE
102
}
102
{ACAD_REACTORS
330
1A7A
102
}
330
1A7A
100
AcDbVisualStyle
  2
Flat
 70
     0
 71
     2
 72
     1
 73
     1
 90
        2
 40
-0.6
 41
30.0
 62
     5
 63
     7
421
 16777215
 74
     0
 91
        0
 64
     7
 65
   257
 75
     1
175
     1
 42
1.0
 92
        8
 66
     7
 43
1.0
 76
     1
 77
     6
 78
     2
 67
     7
 79
     5
170
     0
171
     0
290
     0
174
     0
 93
       13
 44
0.0
173
     0
291
     1
 45
0.0
1001
ACAD
1000
AcDbSavedByObjectVersion
1070
     0
  0
VISUALSTYLE
  5
1A7C
102
{ACAD_XDICTIONARY
360
E0B0
102
}
102
{ACAD_REACTORS
330
1A7A
102
}
330
1A7A
100
AcDbVisualStyle
  2
FlatWithEdges
 70
     1
 71
     2
 72
     1
 73
     1
 90
        2
 40
-0.6
 41
30.0
 62
     5
 63
     7
421
 16777215
 74
     1
 91
        0
 64
     7
 65
   257
 75
     1
175
     1
 42
1.0
 92
        0
 66
   257
 43
1.0
 76
     1
 77
     6
 78
     2
 67
     7
 79
     5
170
     0
171
     0
290
     0
174
     0
 93
       13
 44
0.0
173
     0
291
     1
 45
0.0
1001
ACAD
1000
AcDbSavedByObjectVersion
1070
     0
  0
VISUALSTYLE
  5
1A7D
102
{ACAD_XDICTIONARY
360
E0B2
102
}
102
{ACAD_REACTORS
330
1A7A
102
}
330
1A7A
100
AcDbVisualStyle
  2
Gouraud
 70
     2
 71
     2
 72
     2
 73
     1
 90
        2
 40
-0.6
 41
30.0
 62
     5
 63
     7
421
 16777215
 74
     0
 91
        0
 64
     7
 65
   257
 75
     1
175
     1
 42
1.0
 92
        0
 66
     7
 43
1.0
 76
     1
 77
     6
 78
     2
 67
     7
 79
     5
170
     0
171
     0
290
     0
174
     0
 93
       13
 44
0.0
173
     0
291
     1
 45
0.0
1001
ACAD
1000
AcDbSavedByObjectVersion
1070
     0
  0
VISUALSTYLE
  5
1A7E
102
{ACAD_XDICTIONARY
360
E0B4
102
}
102
{ACAD_REACTORS
330
1A7A
102
}
330
1A7A
100
AcDbVisualStyle
  2
GouraudWithEdges
 70
     3
 71
     2
 72
     2
 73
     1
 90
        2
 40
-0.6
 41
30.0
 62
     5
 63
     7
421
 16777215
 74
     1
 91
        0
 64
     7
 65
   257
 75
     1
175
     1
 42
1.0
 92
        0
 66
   257
 43
1.0
 76
     1
 77
     6
 78
     2
 67
     7
 79
     5
170
     0
171
     0
290
     0
174
     0
 93
       13
 44
0.0
173
     0
291
     1
 45
0.0
1001
ACAD
1000
AcDbSavedByObjectVersion
1070
     0
  0
VISUALSTYLE
  5
1A82
102
{ACAD_XDICTIONARY
360
E0BC
102
}
102
{ACAD_REACTORS
330
1A7A
102
}
330
1A7A
100
AcDbVisualStyle
  2
Hidden
 70
     6
 71
     1
 72
     2
 73
     2
 90
        0
 40
-0.6
 41
-30.0
 62
     5
 63
     7
421
 16777215
 74
     2
 91
        2
 64
     7
 65
   257
 75
     2
175
     1
 42
40.0
 92
        0
 66
   257
 43
1.0
 76
     1
 77
     6
 78
     2
 67
     7
 79
     3
170
     0
171
     0
290
     0
174
     0
 93
        1
 44
0.0
173
     0
291
     0
 45
0.0
1001
ACAD
1000
AcDbSavedByObjectVersion
1070
     0
  0
VISUALSTYLE
  5
1A90
102
{ACAD_XDICTIONARY
360
E0D8
102
}
102
{ACAD_REACTORS
330
1A7A
102
}
330
1A7A
100
AcDbVisualStyle
  2
JitterOff
 70
    20
 71
     2
 72
     2
 73
     0
 90
        0
 40
-0.6
 41
-30.0
 62
     5
 63
     7
421
 16777215
 74
     1
 91
        4
 64
     7
 65
   257
 75
     1
175
     1
 42
1.0
 92
       10
 66
     7
 43
1.0
 76
     1
 77
     6
 78
     2
 67
     7
 79
     5
170
     0
171
     0
290
     0
174
     0
 93
        1
 44
0.0
173
     0
291
     1
 45
0.0
1001
ACAD
1000
AcDbSavedByObjectVersion
1070
     0
  0
VISUALSTYLE
  5
1A88
102
{ACAD_XDICTIONARY
360
E0C8
102
}
102
{ACAD_REACTORS
330
1A7A
102
}
330
1A7A
100
AcDbVisualStyle
  2
Linepattern
 70
    14
 71
     2
 72
     2
 73
     0
 90
        0
 40
-0.6
 41
-30.0
 62
     5
 63
     7
421
 16777215
 74
     1
 91
        4
 64
     7
 65
   257
 75
     7
175
     7
 42
1.0
 92
        8
 66
     7
 43
1.0
 76
     1
 77
     6
 78
     2
 67
     7
 79
     5
170
     0
171
     0
290
     0
174
     0
 93
        1
 44
0.0
173
     0
291
     1
 45
0.0
1001
ACAD
1000
AcDbSavedByObjectVersion
1070
     0
  0
VISUALSTYLE
  5
1A91
102
{ACAD_XDICTIONARY
360
E0DA
102
}
102
{ACAD_REACTORS
330
1A7A
102
}
330
1A7A
100
AcDbVisualStyle
  2
OverhangOff
 70
    21
 71
     2
 72
     2
 73
     0
 90
        0
 40
-0.6
 41
-30.0
 62
     5
 63
     7
421
 16777215
 74
     1
 91
        4
 64
     7
 65
   257
 75
     1
175
     1
 42
1.0
 92
        9
 66
     7
 43
1.0
 76
     1
 77
     6
 78
     2
 67
     7
 79
     5
170
     0
171
     0
290
     0
174
     0
 93
        1
 44
0.0
173
     0
291
     1
 45
0.0
1001
ACAD
1000
AcDbSavedByObjectVersion
1070
     0
  0
VISUALSTYLE
  5
1A84
102
{ACAD_XDICTIONARY
360
E0C0
102
}
102
{ACAD_REACTORS
330
1A7A
102
}
330
1A7A
100
AcDbVisualStyle
  2
Realistic
 70
     8
 71
     2
 72
     2
 73
     0
 90
        2
 40
-0.6
 41
30.0
 62
     5
 63
     7
421
 16777215
 74
     0
 91
        0
 64
     7
 65
   257
 75
     1
175
     1
 42
1.0
 92
        8
 66
   257
 43
1.0
 76
     1
 77
     6
 78
     2
 67
     7
 79
     3
170
     0
171
     0
290
     0
174
     0
 93
       13
 44
0.0
173
     0
291
     0
 45
0.0
1001
ACAD
1000
AcDbSavedByObjectVersion
1070
     0
  0
VISUALSTYLE
  5
1A8F
102
{ACAD_XDICTIONARY
360
E0D6
102
}
102
{ACAD_REACTORS
330
1A7A
102
}
330
1A7A
100
AcDbVisualStyle
  2
Shaded
 70
    27
 71
     2
 72
     2
 73
     1
 90
        2
 40
-0.6
 41
30.0
 62
     5
 63
     7
421
 16777215
 74
     0
 91
        4
 64
     7
 65
   257
 75
     1
175
     1
 42
1.0
 92
        8
 66
   257
 43
1.0
 76
     1
 77
     6
 78
     2
 67
     8
425
  7895160
 79
     3
170
     0
171
     0
290
     0
174
     0
 93
        5
 44
0.0
173
     0
291
     0
 45
0.0
1001
ACAD
1000
AcDbSavedByObjectVersion
1070
     0
  0
VISUALSTYLE
  5
1A8E
102
{ACAD_XDICTIONARY
360
E0D4
102
}
102
{ACAD_REACTORS
330
1A7A
102
}
330
1A7A
100
AcDbVisualStyle
  2
Shaded with edges
 70
    26
 71
     2
 72
     2
 73
     1
 90
        2
 40
-0.6
 41
30.0
 62
     5
 63
     7
421
 16777215
 74
     1
 91
       10
 64
     7
 65
   257
 75
     2
175
     1
 42
1.0
 92
        8
 66
   257
 43
1.0
 76
     1
 77
     6
 78
     2
 67
     7
 79
     3
170
     0
171
     0
290
     0
174
     0
 93
        5
 44
0.0
173
     0
291
     0
 45
0.0
1001
ACAD
1000
AcDbSavedByObjectVersion
1070
     0
  0
VISUALSTYLE
  5
1A8B
102
{ACAD_XDICTIONARY
360
E0CE
102
}
102
{ACAD_REACTORS
330
1A7A
102
}
330
1A7A
100
AcDbVisualStyle
  2
Shades of Gray
 70
    23
 71
     2
 72
     2
 73
     3
 90
        0
 40
-0.6
 41
-30.0
 62
     5
 63
     7
421
 16777215
 74
     2
 91
        2
 64
     7
 65
     7
 75
     1
175
     1
 42
40.0
 92
        8
 66
     7
 43
1.0
 76
     1
 77
     6
 78
     2
 67
     7
 79
     3
170
     0
171
     0
290
     0
174
     0
 93
        1
 44
0.0
173
     0
291
     0
 45
0.0
1001
ACAD
1000
AcDbSavedByObjectVersion
1070
     0
  0
VISUALSTYLE
  5
1A8C
102
{ACAD_XDICTIONARY
360
E0D0
102
}
102
{ACAD_REACTORS
330
1A7A
102
}
330
1A7A
100
AcDbVisualStyle
  2
Sketchy
 70
    24
 71
     1
 72
     2
 73
     2
 90
        0
 40
-0.6
 41
-30.0
 62
     5
 63
     7
421
 16777215
 74
     2
 91
        2
 64
     7
 65
     7
 75
     1
175
     1
 42
40.0
 92
       11
 66
     7
 43
1.0
 76
     1
 77
     6
 78
     2
 67
     7
 79
     6
170
     0
171
     0
290
     0
174
     0
 93
        1
 44
0.0
173
     0
291
     0
 45
0.0
1001
ACAD
1000
AcDbSavedByObjectVersion
1070
     0
  0
VISUALSTYLE
  5
1A87
102
{ACAD_XDICTIONARY
360
E0C6
102
}
102
{ACAD_REACTORS
330
1A7A
102
}
330
1A7A
100
AcDbVisualStyle
  2
Thicken
 70
    13
 71
     2
 72
     2
 73
     0
 90
        0
 40
-0.6
 41
-30.0
 62
     5
 63
     7
421
 16777215
 74
     1
 91
        4
 64
     7
 65
   257
 75
     1
175
     1
 42
1.0
 92
       12
 66
     7
 43
1.0
 76
     1
 77
     6
 78
     2
 67
     7
 79
     5
170
     0
171
     0
290
     0
174
     0
 93
        1
 44
0.0
173
     0
291
     1
 45
0.0
1001
ACAD
1000
AcDbSavedByObjectVersion
1070
     0
  0
VISUALSTYLE
  5
1A81
102
{ACAD_XDICTIONARY
360
E0BA
102
}
102
{ACAD_REACTORS
330
1A7A
102
}
330
1A7A
100
AcDbVisualStyle
  2
Wireframe
 70
     5
 71
     0
 72
     2
 73
     0
 90
        0
 40
-0.6
 41
-30.0
 62
     5
 63
     7
421
 16777215
 74
     1
 91
        4
 64
     7
 65
   257
 75
     1
175
     1
 42
1.0
 92
        0
 66
   257
 43
1.0
 76
     1
 77
     6
 78
     2
 67
     7
 79
     3
170
     0
171
     0
290
     0
174
     0
 93
        1
 44
0.0
173
     0
291
     0
 45
0.0
1001
ACAD
1000
AcDbSavedByObjectVersion
1070
     0
  0
VISUALSTYLE
  5
1A8D
102
{ACAD_XDICTIONARY
360
E0D2
102
}
102
{ACAD_REACTORS
330
1A7A
102
}
330
1A7A
100
AcDbVisualStyle
  2
X-Ray
 70
    25
 71
     2
 72
     2
 73
     1
 90
        1
 40
0.5
 41
-30.0
 62
     5
 63
     7
421
 16777215
 74
     1
 91
        0
 64
     7
 65
   257
 75
     1
175
     1
 42
1.0
 92
        8
 66
     7
 43
1.0
 76
     1
 77
     6
 78
     2
 67
     7
 79
     3
170
     0
171
     0
290
     0
174
     0
 93
       13
 44
0.0
173
     0
291
     0
 45
0.0
1001
ACAD
1000
AcDbSavedByObjectVersion
1070
     0
  0
DICTIONARYVAR
  5
71EB
102
{ACAD_REACTORS
330
71E8
102
}
330
71E8
100
DictionaryVariables
280
     0
  1
1:1
  0
DICTIONARYVAR
  5
71EA
102
{ACAD_REACTORS
330
71E8
102
}
330
71E8
100
DictionaryVariables
280
     0
  1
STANDARD
  0
DICTIONARYVAR
  5
71E9
102
{ACAD_REACTORS
330
71E8
102
}
330
71E8
100
DictionaryVariables
280
     0
  1
STANDARD
  0
DICTIONARYVAR
  5
E0A3
102
{ACAD_REACTORS
330
71E8
102
}
330
71E8
100
DictionaryVariables
280
     0
  1
2
  0
DICTIONARY
  5
1B40
102
{ACAD_REACTORS
330
1B35
102
}
330
1B35
100
AcDbDictionary
281
     1
  0
XRECORD
  5
7201
102
{ACAD_REACTORS
330
1B35
102
}
330
1B35
100
AcDbXrecord
280
     1
 90
-1023410169
  0
DICTIONARY
  5
71A5
330
1ABF
100
AcDbDictionary
280
     1
281
     1
  3
ADSK_XREC_LAYOUTTHUMBNAIL
360
71A6
  0
DICTIONARY
  5
1A6B
330
1A6A
100
AcDbDictionary
280
     1
281
     1
  3
ACAD_XREC_ROUNDTRIP
360
E0AC
  3
BUMPTILE
360
1A6D
  3
DIFFUSETILE
360
1A6C
  3
OPACITYTILE
360
1A70
  3
REFLECTIONTILE
360
1A6F
  3
REFRACTIONTILE
360
1A71
  3
SPECULARTILE
360
1A6E
  0
DICTIONARY
  5
1A63
330
1A62
100
AcDbDictionary
280
     1
281
     1
  3
ACAD_XREC_ROUNDTRIP
360
E0AB
  3
BUMPTILE
360
1A65
  3
DIFFUSETILE
360
1A64
  3
OPACITYTILE
360
1A68
  3
REFLECTIONTILE
360
1A67
  3
REFRACTIONTILE
360
1A69
  3
SPECULARTILE
360
1A66
  0
DICTIONARY
  5
1A73
330
1A72
100
AcDbDictionary
280
     1
281
     1
  3
ACAD_XREC_ROUNDTRIP
360
E0AD
  3
BUMPTILE
360
1A75
  3
DIFFUSETILE
360
1A74
  3
OPACITYTILE
360
1A78
  3
REFLECTIONTILE
360
1A77
  3
REFRACTIONTILE
360
1A79
  3
SPECULARTILE
360
1A76
  0
DICTIONARY
  5
71A7
330
1AB5
100
AcDbDictionary
280
     1
281
     1
  3
ACAD_ROUNDTRIP_2008_TABLESTYLE_CELLSTYLEMAP
360
E0A4
  3
ACAD_XREC_ROUNDTRIP
360
E0DE
  0
DICTIONARY
  5
E0B8
330
1A80
100
AcDbDictionary
280
     1
281
     1
  3
ACAD_XREC_ROUNDTRIP
360
E0B9
  0
DICTIONARY
  5
E0B6
330
1A7F
100
AcDbDictionary
280
     1
281
     1
  3
ACAD_XREC_ROUNDTRIP
360
E0B7
  0
DICTIONARY
  5
E0C4
330
1A86
100
AcDbDictionary
280
     1
281
     1
  3
ACAD_XREC_ROUNDTRIP
360
E0C5
  0
DICTIONARY
  5
E0CC
330
1A8A
100
AcDbDictionary
280
     1
281
     1
  3
ACAD_XREC_ROUNDTRIP
360
E0CD
  0
DICTIONARY
  5
E0BE
330
1A83
100
AcDbDictionary
280
     1
281
     1
  3
ACAD_XREC_ROUNDTRIP
360
E0BF
  0
DICTIONARY
  5
E0C2
330
1A85
100
AcDbDictionary
280
     1
281
     1
  3
ACAD_XREC_ROUNDTRIP
360
E0C3
  0
DICTIONARY
  5
E0DC
330
1A92
100
AcDbDictionary
280
     1
281
     1
  3
ACAD_XREC_ROUNDTRIP
360
E0DD
  0
DICTIONARY
  5
E0CA
330
1A89
100
AcDbDictionary
280
     1
281
     1
  3
ACAD_XREC_ROUNDTRIP
360
E0CB
  0
DICTIONARY
  5
E0AE
330
1A7B
100
AcDbDictionary
280
     1
281
     1
  3
ACAD_XREC_ROUNDTRIP
360
E0AF
  0
DICTIONARY
  5
E0B0
330
1A7C
100
AcDbDictionary
280
     1
281
     1
  3
ACAD_XREC_ROUNDTRIP
360
E0B1
  0
DICTIONARY
  5
E0B2
330
1A7D
100
AcDbDictionary
280
     1
281
     1
  3
ACAD_XREC_ROUNDTRIP
360
E0B3
  0
DICTIONARY
  5
E0B4
330
1A7E
100
AcDbDictionary
280
     1
281
     1
  3
ACAD_XREC_ROUNDTRIP
360
E0B5
  0
DICTIONARY
  5
E0BC
330
1A82
100
AcDbDictionary
280
     1
281
     1
  3
ACAD_XREC_ROUNDTRIP
360
E0BD
  0
DICTIONARY
  5
E0D8
330
1A90
100
AcDbDictionary
280
     1
281
     1
  3
ACAD_XREC_ROUNDTRIP
360
E0D9
  0
DICTIONARY
  5
E0C8
330
1A88
100
AcDbDictionary
280
     1
281
     1
  3
ACAD_XREC_ROUNDTRIP
360
E0C9
  0
DICTIONARY
  5
E0DA
330
1A91
100
AcDbDictionary
280
     1
281
     1
  3
ACAD_XREC_ROUNDTRIP
360
E0DB
  0
DICTIONARY
  5
E0C0
330
1A84
100
AcDbDictionary
280
     1
281
     1
  3
ACAD_XREC_ROUNDTRIP
360
E0C1
  0
DICTIONARY
  5
E0D6
330
1A8F
100
AcDbDictionary
280
     1
281
     1
  3
ACAD_XREC_ROUNDTRIP
360
E0D7
  0
DICTIONARY
  5
E0D4
330
1A8E
100
AcDbDictionary
280
     1
281
     1
  3
ACAD_XREC_ROUNDTRIP
360
E0D5
  0
DICTIONARY
  5
E0CE
330
1A8B
100
AcDbDictionary
280
     1
281
     1
  3
ACAD_XREC_ROUNDTRIP
360
E0CF
  0
DICTIONARY
  5
E0D0
330
1A8C
100
AcDbDictionary
280
     1
281
     1
  3
ACAD_XREC_ROUNDTRIP
360
E0D1
  0
DICTIONARY
  5
E0C6
330
1A87
100
AcDbDictionary
280
     1
281
     1
  3
ACAD_XREC_ROUNDTRIP
360
E0C7
  0
DICTIONARY
  5
E0BA
330
1A81
100
AcDbDictionary
280
     1
281
     1
  3
ACAD_XREC_ROUNDTRIP
360
E0BB
  0
DICTIONARY
  5
E0D2
330
1A8D
100
AcDbDictionary
280
     1
281
     1
  3
ACAD_XREC_ROUNDTRIP
360
E0D3
  0
XRECORD
  5
71A6
102
{ACAD_REACTORS
330
71A5
102
}
330
71A5
100
AcDbXrecord
280
     1
310
280000000001000087000000010008000000000000870000000000000000000000010000000000000000000000000000C8C8C8000000000000000000000000000000000000000000000000000000000000000000330000006600000099000000CC000000FF00000000330000333300006633000099330000CC330000FF3300
310
0000660000336600006666000099660000CC660000FF66000000990000339900006699000099990000CC990000FF99000000CC000033CC000066CC000099CC0000CCCC0000FFCC000000FF000033FF000066FF000099FF0000CCFF0000FFFF000000003300330033006600330099003300CC003300FF003300003333003333
310
33006633330099333300CC333300FF33330000663300336633006666330099663300CC663300FF66330000993300339933006699330099993300CC993300FF99330000CC330033CC330066CC330099CC3300CCCC3300FFCC330000FF330033FF330066FF330099FF3300CCFF3300FFFF330000006600330066006600660099
310
006600CC006600FF00660000336600333366006633660099336600CC336600FF33660000666600336666006666660099666600CC666600FF66660000996600339966006699660099996600CC996600FF99660000CC660033CC660066CC660099CC6600CCCC6600FFCC660000FF660033FF660066FF660099FF6600CCFF6600
310
FFFF660000009900330099006600990099009900CC009900FF00990000339900333399006633990099339900CC339900FF33990000669900336699006666990099669900CC669900FF66990000999900339999006699990099999900CC999900FF99990000CC990033CC990066CC990099CC9900CCCC9900FFCC990000FF99
310
0033FF990066FF990099FF9900CCFF9900FFFF99000000CC003300CC006600CC009900CC00CC00CC00FF00CC000033CC003333CC006633CC009933CC00CC33CC00FF33CC000066CC003366CC006666CC009966CC00CC66CC00FF66CC000099CC003399CC006699CC009999CC00CC99CC00FF99CC0000CCCC0033CCCC0066CC
310
CC0099CCCC00CCCCCC00FFCCCC0000FFCC0033FFCC0066FFCC0099FFCC00CCFFCC00FFFFCC000000FF003300FF006600FF009900FF00CC00FF00FF00FF000033FF003333FF006633FF009933FF00CC33FF00FF33FF000066FF003366FF006666FF009966FF00CC66FF00FF66FF000099FF003399FF006699FF009999FF00CC
310
99FF00FF99FF0000CCFF0033CCFF0066CCFF0099CCFF00CCCCFF00FFCCFF0000FFFF0033FFFF0066FFFF0099FFFF00CCFFFF00FFFFFF00000000000D0D0D001A1A1A00282828003535350043434300505050005D5D5D006B6B6B00787878008686860093939300A1A1A100AEAEAE00BBBBBB00C9C9C900D6D6D600E4E4E400
310
F1F1F100FFFFFF000000000000000000000000000000000000000000000000000000000000000000000000000000000000000000000000000000000000000000000000000000000000000000000000000000000000000000000000000000000000000000000000000000000000000000000000000000000000000000000000
310
00000000000000000000000000000000000000000000000000000000000000000000000000000000000000000000000000000000000000000000000000000000000000000000000000000000000000000000000000000000000000000000000000000000000000000000000000000000000000000000000000000000000000
310
00000000000000000000000000000000000000000000000000000000000000000000000000000000000000000000000000000000000000000000000000000000000000000000000000000000000000000000000000000000000000000000000000000000000000000000000000000000000000000000000000000000000000
310
00000000000000000000000000000000000000000000000000000000000000000000000000000000000000000000000000000000000000000000000000000000000000000000000000000000000000000000000000000000000000000000000000000000000000000000000000000000000000000000000000000000000000
310
00000000000000000000000000000000000000000000000000000000000000000000000000000000000000000000000000000000000000000000000000000000000000000000000000000000000000000000000000000000000000000000000000000000000000000000000000000000000000000000000000000000000000
310
00000000000000000000000000000000000000000000000000000000000000000000000000000000000000000000000000000000000000000000000000000000000000000000000000000000000000000000000000000000000000000000000000000000000000000000000000000000000000000000000000000000000000
310
00000000000000000000000000000000000000000000000000000000000000000000000000000000000000000000000000000000000000000000000000000000000000000000000000000000000000000000000000000000000000000000000000000000000000000000000000000000000000000000000000000000000000
310
00000000000000000000000000000000000000000000000000000000000000000000000000000000000000000000000000000000000000000000000000000000000000000000000000000000000000000000000000000000000000000000000000000000000000000000000000000000000000000000000000000000000000
310
00000000000000000000000000000000000000000000000000000000000000000000000000000000000000000000000000000000000000000000000000000000000000000000000000000000000000000000000000000000000000000000000000000000000000000000000000000000000000000000000000000000000000
310
00000000000000000000000000000000000000000000000000000000000000000000000000000000000000000000000000000000000000000000000000000000000000000000000000000000000000000000000000000000000000000000000000000000000000000000000000000000000000000000000000000000000000
310
00000000000000000000000000000000000000000000000000000000000000000000000000000000000000000000000000000000000000000000000000000000000000000000000000000000000000000000000000000000000000000000000000000000000000000000000000000000000000000000000000000000000000
310
00000000000000000000000000000000000000000000000000000000000000000000000000000000000000000000000000000000000000000000000000000000000000000000000000000000000000000000000000000000000000000000000000000000000000000000000000000000000000000000000000000000000000
310
00000000000000000000000000000000000000000000000000000000000000000000000000000000000000000000000000000000000000000000000000000000000000000000000000000000000000000000000000000000000000000000000000000000000000000000000000000000000000000000000000000000000000
310
00000000000000000000000000000000000000000000000000000000000000000000000000000000000000000000000000000000000000000000000000000000000000000000000000000000000000000000000000000000000000000000000000000000000000000000000000000000000000000000000000000000000000
310
00000000000000000000000000000000000000000000000000000000000000000000000000000000000000000000000000000000000000000000000000000000000000000000000000000000000000000000000000000000000000000000000000000000000000000000F5F5F5F5F5F5F5F5F5F5F5F5F5F5F5F5F5F5F5F5F5
310
F5F5F5F5F5F5F5F5F5F5F5F5F5F5F5F5F5F5F5F5F5F5F5F5F5F5F5F5F5F5F5F5F5F5F5F5F5F5F5F5F5F5F5F5F5F5F5F5F5F5F5F5F5F5F5F5F5F5F5F5F5F5F5F5F5F5F5F5F5F5F5F5F5F5F5F5F5F5F5F5F5F5F5F5F5F5F5F5F5F5F5F5F5F5F5F5F5F5F5F5F5F5F5F5F5F5F5F5F5F5F5F5F5F5F5F5F5F5F5F5F5F5F5F5F5F5F5
310
F5F5F5F5F5F5F5F5F5F5F5F5F5F5F5F5F5F5F5F5F5F5F5F5F50000000000000000000000000000000000000000000000000000000000000000000000000000000000000000000000000000000000000000000000000000000000000000000000000000000000000000000000F5000000000000000000000000000000000000
310
00000000000000000000000000000000000000000000000000000000000000000000000000000000000000000000000000000000000000000000000000000000000000000000000000000000000000000000000000000000000000000000000000000000000000000000000000000000000000000000000000000000000000
310
0000000000000000000000000000000000000000000000000000F50000000000000000000000000000000000000000000000000000000000000000000000000000000000000000000000000000000000000000000000000000000000000000000000000000000000000000000000F500000000000000000000000000000000
310
0000000000000000000000000000000000000000000000000000000000000000000000000000000000000000000000000000000000000000000000000000000000000000000000000000000000000000000000000000000000F5F5F5F5F5F5F5F5F5F5F5F5F5F5F5F5F5F5F5F5F5F5F5F5F5F5F5F5F5F5F5F5F5F5F5F5F5F5
310
F5F5F5F5F5F5F5F5F5F5F5F5F5F5F5F5F5F5F5F5F5F5F5F5F5F5F500F50000000000000000000000000000000000000000000000000000000000000000000000000000000000000000000000000000000000000000000000000000000000000000000000000000000000000000000000F50000000000000000000000000000
310
00000000000000000000000000000000000000000000000000000000000000000000000000000000000000000000000000000000000000000000000000000000000000000000000000000000000000000000000000000000000000F5F5F5F5F5F5F5F500000029292929292900000000000000000000000000000000000000
310
F500000000000000000000000000000000000000F500000000000000F500F50000000000000000000000000000000000000000000000000000000000000000000000000000000000000000000000000000000000000000000000000000000000000000000000000000000000000000000000F5000000000000000000000000
310
000000000000000000000000000000000000000000000000000000000000000000000000000000000000000000000000000000000000000000000000000000000000000000000000000000000000000000000000000000000000000000F5F5F5F5F5F5F5F50000002929002929290000000000000000000000000000000000
310
0000F500000000000000000000000000000000000000F500000000000000F500F50000000000000000000000000000000000000000000000000000000000000000000000000000000000000000000000000000000000000000000000000000000000000000000000000000000000000000000000F500000000000000000000
310
0000000000000000000000000000000000000000000000000000000000000000000000000000000000000000000000000000000000000000000000000000000000000000000000000000000000000000000000000000000000000000000000F500000000000000000000292929292929000000000000000000000000000000
310
00000000F500292929292900002929292929292929290000F500000000000000F500F50000000000000000000000000000000000000000000000000000000000000000000000000000000000000000000000000000000000000000000000000000000000000000000000000000000000000000000000F50000000000000000
310
00000000000000000000000000000000000000000000000000000000000000000000000000000000000000000000000000000000000000000000000000000000000000000000000000000000000000000000000000000000000000000000000000F5F5F5F5F5F5F5F5F5F5F5F5F5F5F5F5F5F5F5F5F5F5F5F5F5F5F5F5F5F5
310
F5F5F5F5F5F5F500292929292900002929292929292929292900F500000000000000F500F50000000000000000000000000000000000000000000000000000000000000000000000000000000000000000000000000000000000000000000000000000000000000000000000000000000000000000000000F5000000000000
310
000000000000000000000000000000000000000000000000000000000000000000000000000000000000000000000000000000000000000000000000000000000000000000000000000000000000000000000000000000000000000000000000000000F5F5F5F5F5F5F5000029292929292929002929000000000000000000
310
0000000000000000F500000000000000000000000000000000000000F500000000000000F500F50000000000000000000000000000000000000000000000000000000000000000000000000000000000000000000000000000000000000000000000000000000000000000000000000000000000000000000000F500000000
310
0000000000000000000000000000000000000000000000000000000000000000000000000000000000000000000000000000000000000000000000000000000000000000000000000000000000000000000000000000000000000000000000000000000000F5F5F5F5F5F5F500292929002929290029292900000000000000
310
00000000000000000000F5000000F5F5F5F5F5F5F5F5F5F5F5F500000000F5F5F5F5F5F5F5F5F500F50000000000000000000000000000000000000000000000000000000000000000000000000000000000000000000000000000000000000000000000000000000000000000000000000000000000000000000000F50000
310
00000000000000000000000000000000000000000000000000000000000000000000000000000000000000000000000000000000000000000000000000000000000000000000000000000000000000000000000000000000000000000000000000000000000000F5F5F500F500000000292900292929002929290000000000
310
000000000000000000000000F5000000F5F5F5F5F5F5F5F5F5F5F50000000000F5F5F5F5F5F5F5F5F500F50000000000000000000000000000000000000000000000000000000000000000000000000000000000000000000000000000000000000000000000000000000000000000000000000000000000000000000000F5
310
000000000000000000000000000000000000000000000000000000000000000000000000000000000000000000000000000000000000000000000000000000000000000000000000000000000000000000000000000000000000000000000000000000000000000000F5000000000000000000000000000000000000000000
310
0000000000000000000000000000F500000000000000000000000000000000000000F5F50000F5F50000F500F500000000000000000000000000000000000000000000000000000000000000000000000000000000000000000000000000000000000000000000000000000000000000000000000000000000000000000000
310
00F5000000000000000000000000000000000000000000000000000000000000000000000000000000000000000000000000000000000000000000000000000000000000000000000000000000000000000000000000000000000000000000000000000000000000000000F5F5F5F5F5F5F5F5F5F5F5F5F5F5F5F5F5F5F5F5
310
F5F5F5F5F5F5F5F5F5F5F5F5F5F5F5F5F5F5F5F5F5F5F5F5F5F5F5F5F5F5F5F5F5F5F5F5F5F5F5F5F5F5F5F5F500F50000000000000000000000000000000000000000000000000000000000000000000000000000000000000000000000000000000000000000000000000000000000000000000000000000000000000000
310
000000F5000000000000000000000000000000000000000000000000000000000000000000000000000000000000000000000000000000000000000000000000000000000000000000000000000000000000000000000000000000000000000000000000000000000000000000F50000000000000000000000000000000000
310
00000000000000000000000000000000000000000000000000000000000000000000000000000000000000000000F500F5000000000000000000000000000000000000000000000000000000000000000000000000000000000000000000000000000000000000000000000000000000000000000000000000000000000000
310
0000000000F5000000000000000000000000000000000000000000000000000000000000000000000000000000000000000000000000000000000000000000000000000000000000000000000000000000000000000000000000000000000000000000000000000000000000000000F5000000000000000000000000000000
310
000000000000000000000000000000000000000000000000000000000000000000000000000000000000000000000000F500F500000000000000000000000000000000000000000000000000000000000000000000000000000000000000000000000000000000000000000000000000000000000000000000000000000000
310
00000000000000F5000000000000000000000000000000000000000000000000000000000000000000000000000000000000000000000000000000000000000000000000000000000000000000000000000000000000000000000000000000000000000000000000000000000000000000F500000000000000000000000000
310
0000000000000000000000000000000000000000000000000000000000000000000000000000000000000000000000000000F500F50000000000000000000000000000000000000000000000000000000000000000000000000000000000000000000000000000000000000000000000000000000000000000000000000000
310
000000000000000000F5000000000000000000000000000000000000000000000000000000000000000000000000000000000000000000000000000000000000000000000000000000000000000000000000000000000000000000000000000000000000000000000000000000000000000000F50000000000000000000000
310
00000000000000000000000000000000000000000000000000000000000000000000000000000000000000000000000000000000F500F5000000000000000000000000000000000000000000000000000000000000000000000000000000000000000000000000000000000000000000000000000000000000000000000000
310
0000000000000000000000F5000000000000000000000000000000000000000000000000000000000000000000000000000000000000000000000000000000000000000000000000000000000000000000000000000000000000000000000000000000000000000000000000000000000000000000F5000000000000000000
310
000000002900000000000000000000000000000000000000000000000000000000000000000000000000000000000000000000000000F500F500000000000000000000000000000000000000000000000000000000000000000000000000000000000000000000000000000000000000000000000000000000000000000000
310
00000000000000000000000000F5000000000000000000000000000000000000000000000000000000000000000000000000000000000000000000000000000000000000000000000000000000000000000000000000000000000000000000000000000000000000000000000000000000000000000000F500000000292929
310
2929002929002929002929290029292929292900292929290000002929292929290000000029292929292929292900290000290000000000F500F50000000000000000000000000000000000000000000000000000000000000000000000000000000000000000000000000000000000000000000000000000000000000000
310
000000000000000000000000000000F5000000000000000000000000000000000000000000000000000000000000000000000000000000000000000000000000000000000000000000000000000000000000000000000000000000000000000000000000000000000000000000000000000000000000000000F50000000029
310
00292929002929002929292929290000292929292900292929290000002900292929002900000000292929292900292900290000290000000000F500F5000000000000000000000000000000000000000000000000000000000000000000000000000000000000000000000000000000000000000000000000000000000000
310
0000000000000000000000000000000000F5000000000000000000000000000000000000000000000000000000000000000000000000000000000000000000000000000000000000000000000000000000000000000000000000000000000000000000000000000000000000000000000000000000000000000000F5000000
310
002929292929292929002929002929292929292929292929290029290000002929002929292900000029290029292929292929000029002900000000F500F500000000000000000000000000000000000000000000000000000000000000000000000000000000000000000000000000000000000000000000000000000000
310
00000000000000000000000000000000000000F5000000000000000000000000000000000000000000000000000000000000000000000000000000000000000000000000000000000000000000000000000000000000000000000000000000000000000000000000000000000000000000000000000000000000000000F500
310
0000002900000000000000000000000000000000000000000000000000000000002929290029290000000029290029290029292900292900002900000000F500F50000000000000000000000000000000000000000000000000000000000000000000000000000000000000000000000000000000000000000000000000000
310
000000000000000000000000000000000000000000F5000000000000000000000000000000000000000000000000000000000000000000000000000000000000000000000000000000000000000000000000000000000000000000000000000000000000000000000000000000000000000000000000000000000000000000
310
F5F5F5F5F5F5F5F5F5F5F5F5F5F5F5F5F5F5F5F5F5F5F5F5F5F5F5F5F5F5F5F5F5F5F5F5F5F5F5F5F5F5F5F5F5F5F5F5F5F5F5F5F5F5F5F5F5F5F5F5F5F5F5F5F500F5000000000000000000000000000000000000000000000000000000000000000000000000000000000000000000000000000000000000000000000000
310
0000000000000000000000000000000000000000000000F500000000000000000000000000000000000000000000000000000000000000000000000000000000000000000000000000000000000000000000000000000000000000000000000000000000000000000000000000000000000000000000000000000000000000
310
0000000000000000000000000000000000000000000000000000000000000000000000000000000000000000000000000000000000000000000000000000000000000000F500000000000000000000000000000000000000000000000000000000000000000000000000000000000000000000000000000000000000000000
310
00000000000000000000000000000000000000000000000000F50000000000000000000000000000000000000000000000000000000000000000000000000000000000000000000000000000000000000000000000000000000000000000000000000000000000000000000000000000000000000000000000000000000000
310
00000000000000000000000000000000000000000000000000000000000000000000002929292929292929290029292929292929292929292900000000000000000000000000F50000000000000000000000000000000000000000000000000000000000000000000000000000000000000000000000000000000000000000
310
000000000000000000000000000000000000000000000000000000F5000000000000000000000000000000000000000000000000000000000000000000000000000000000000000000000000000000000000000000000000000000000000000000000000000000000000000000000000000000000000000000000000000000
310
000000000000000000000000000000000000000000000000000000000000000000000000002929292929292929290029292929292929292929292900000000000000000000000000F5000000000000000000000000000000000000000000000000000000000000000000000000000000000000000000000000000000000000
310
0000000000000000000000000000000000000000000000000000000000F500000000000000000000000000000000000000000000000000000000000000000000000000000000000000000000000000000000000000000000000000000000000000000000000000000000000000000000000000000000000000000000000000
310
0000000000000000000000000000000000000000000000000000000000000000000000000000000000002929290029000000000000000000000000290000000000000000000000000000F500000000000000000000000000000000000000000000000000000000000000000000000000000000000000000000000000000000
310
00000000000000000000000000000000000000000000000000000000000000F50000000000000000000000000000000000000000000000000000000000000000000000000000000000000000000000000000000000000000000000000000000000000000000000000000000000000000000000000000000000000000000000
310
00000000000000000000000000000000000000000000000000000000000000000000000000000000002929292929292929292929292929292929292929292900000000000000000000000000F50000000000000000000000000000000000000000000000000000000000000000000000000000000000000000000000000000
310
000000000000000000000000000000000000000000000000000000000000000000F5000000000000000000000000000000000000000000000000000000000000000000000000000000000000000000000000000000000000000000000000000000000000000000000000000000000000000000000000000000000000000000
310
000000000000000000000000000000000000000000000000000000000000000000000000000000000000002929002929290000290029290000000000290000000000292900000000000000000000F5000000000000000000000000000000000000000000000000000000000000000000000000000000000000000000000000
310
0000000000000000000000000000000000000000000000000000000000000000000000F500000000000000000000000000000000000000000000000000000000000000000000000000000000000000000000000000000000000000000000000000000000000000000000000000000000000000000000000000000000000000
310
0000000000000000000000000000000000000000000000000000000000000000000000000000000000000000002929292929292929292929292929290029290029292929292929292929290000000000F500000000000000000000000000000000000000000000000000000000000000000000000000000000000000000000
310
00000000000000000000000000000000000000000000000000000000000000000000000000F50000000000000000000000000000000000000000000000000000000000000000000000000000000000000000000000000000000000000000000000000000000000000000000000000000000000000000000000000000000000
310
00000000000000000000000000000000000000000000000000000000000000000000000000000000000000000000002929292929292929292929292929290029292929292929292929292929290000000000F50000000000000000000000000000000000000000000000000000000000000000000000000000000000000000
310
000000000000000000000000000000000000000000000000000000000000000000000000000000F5000000000000000000000000000000000000000000000000000000000000000000000000000000000000000000000000000000000000000000000000000000000000000000000000000000000000000000000000000000
310
000000000000000000000000000000000000000000000000000000000000000000000000000000000000000000000000002929292929292929292929292929002929292929292900292929292900000000000000F5000000000000000000000000000000000000000000000000000000000000000000000000000000000000
310
0000000000000000000000000000000000000000000000000000000000000000000000000000000000F500000000000000000000000000000000000000000000000000000000000000000000000000000000000000000000000000000000000000000000000000000000000000000000000000000000000000000000000000
310
0000000000000000000000000000000000000000000000000000000000000000000000000000000000000000000000000000002929292929292929292929292929002929292929292929292929292900000000000000F500000000000000000000000000000000000000000000000000000000000000000000000000000000
310
00000000000000000000000000000000000000000000000000000000000000000000000000000000000000F50000000000000000000000000000000000000000000000000000000000000000000000000000000000000000000000000000000000000000000000000000000000000000000000000000000000000000000000
310
00000000000000000000000000000000000000000000000000000000000000000000000000000000000000000000000000000000000000000029292900002929000000000029000029000000292900000000000000000000F50000000000000000000000000000000000000000000000000000000000000000000000000000
310
000000000000000000000000000000000000000000000000000000000000000000000000000000000000000000F5000000000000000000000000000000000000000000000000000000000000000000000000000000000000000000000000000000000000000000000000000000000000000000000000000000000000000000
310
000000000000000000000000000000000000000000000000000000000000000000000000000000000000000000000000000000000000002929292929292929292929292900292929292929292900000000000000000000000000F5000000000000000000000000000000000000000000000000000000000000000000000000
310
0000000000000000000000000000000000000000000000000000000000000000000000000000000000000000000000F500000000000000000000000000000000000000000000000000000000000000000000000000000000000000000000000000000000000000000000000000000000000000000000000000000000000000
310
0000000000000000000000000000000000000000000000000000000000000000000000000000000000000000000000000000000000000000002929290029292929292929292900292929292929290000000000000000000000000000F500000000000000000000000000000000000000000000000000000000000000000000
310
00000000000000000000000000000000000000000000000000000000000000000000000000000000000000000000000000F50000000000000000000000000000000000000000000000000000000000000000000000000000000000000000000000000000000000000000000000000000000000000000000000000000000000
310
00000000000000000000000000000000000000000000000000000000000000000000000000000000000000000000000000000000000000000000002929292929292929292929292929292929292900292929292929292929000000000000F50000000000000000000000000000000000000000000000000000000000000000
310
000000000000000000000000000000000000000000000000000000000000000000000000000000000000000000000000000000F5000000000000000000000000000000000000000000000000000000000000000000000000000000000000000000000000000000000000000000000000000000000000000000000000000000
310
000000000000000000000000000000000000000000000000000000000000000000000000000000000000000000000000000000000000000000000000002929292929292929292929292929292929292900292929292929292929000000000000F5000000000000000000000000000000000000000000000000000000000000
310
0000000000000000000000000000000000000000000000000000000000000000000000000000000000000000000000000000000000F500000000000000000000000000000000000000000000000000000000000000000000000000000000000000000000000000000000000000000000000000000000000000000000000000
310
0000000000000000000000000000000000000000000000000000000000000000000000000000000000000000000000000000000000000000000000000000002929292929290000000000000000000000000000000000000000000000000000000000F500000000000000000000000000000000000000000000000000000000
310
00000000000000000000000000000000000000000000000000000000000000000000000000000000000000000000000000000000000000F50000000000000000000000000000000000000000000000000000000000000000000000000000000000000000000000000000000000000000000000000000000000000000000000
310
00000000000000000000000000000000000000000000000000000000000000000000000000000000000000000000000000000000000000000000000000000000002929292929000000000000000000000000000000000000000000000000000000000000F50000000000000000000000000000000000000000000000000000
310
000000000000000000000000000000000000000000000000000000000000000000000000000000000000000000000000000000000000000000F5000000000000000000000000000000000000000000000000000000000000000000000000000000000000000000000000000000000000000000000000000000000000000000
310
000000000000000000000000000000000000000000000000000000000000000000000000000000000000000000000000000000000000000000000000000000000000002929292929290000000000000000000000000000000000000000000000000000000000F5000000000000000000000000000000000000000000000000
310
0000000000000000000000000000000000000000000000000000000000000000000000000000000000000000000000000000000000000000000000F500000000000000000000000000000000000000000000000000000000000000000000000000000000000000000000000000000000000000000000000000000000000000
310
0000000000000000000000000000000000000000000000000000000000000000000000000000000000000000000000000000000000000000000000000000000000000000000000000000000000000000000000000000000000000000000000000000000000000000F500000000000000000000000000000000000000000000
310
00000000000000000000000000000000000000000000000000000000000000000000000000000000000000000000000000000000000000000000000000F50000000000000000000000000000000000000000000000000000000000000000000000000000000000000000000000000000000000000000000000000000000000
310
00000000000000000000000000000000000000000000000000000000000000000000000000000000000000000000000000000000000000000000000000000000000000000000000000000000000000000000000000000000000000000000000000000000000000000000F50000000000000000000000000000000000000000
310
000000000000000000000000000000000000000000000000000000000000000000000000000000000000000000000000000000000000000000000000000000F5000000000000000000000000000000000000000000000000000000000000000000000000000000000000000000000000000000000000000000000000000000
310
000000000000000000000000000000000000000000000000000000000000000000000000000000000000000000000000000000000000000000000000000000000000000000000000000000000000000000000000000000000000000000000000000000000000000000000000F5000000000000000000000000000000000000
310
0000000000000000000000000000000000000000000000000000000000000000000000000000000000000000000000000000000000000000000000000000000000F500000000000000000000000000000000000000000000000000000000000000000000000000000000000000000000000000000000000000000000000000
310
0000000000000000000000000000000000000000000000000000000000000000000000000000000000000000000000000000000000000000000000000000000000000000000000000000000000000000000000000000000000000000000000000000000000000000000000000000F500000000000000000000000000000000
310
00000000000000000000000000000000000000000000000000000000000000000000000000000000000000000000000000000000000000000000000000000000000000F50000000000000000000000000000000000000000000000000000000000000000000000000000000000000000000000000000000000000000000000
310
29292929292929292929000000000000000000000000000000000000000000000000000000000000000000000000000000000000000000000000000000000000000000000000000000000000000000000000000000000000000000000000000000000000000000000000000000000000F50000000000000000000000000000
310
000000000000000000000000000000000000000000000000000000000000000000000000000000000000000000000000000000000000000000000000000000000000000000F5000000000000000000000000000000000000000000000000000000000000000000000000000000000000000000000000000000000000000000
310
000029292929292929292900000000000000000000000000000000000000000000000000000000000000000000000000000000000000000000000000000000000000000000000000000000000000000000000000000000000000000000000000000000000000000000000000000000000000F5000000000000000000000000
310
0000000000000000000000000000000000000000000000000000000000000000000000000000000000000000000000000000000000000000000000000000000000000000000000F500000000000000000000000000000000000000000000000000000000000000000000000000000000000000000000000000000000000000
310
0000000000000000000000000000000000000000000000000000000000000000000000000000000000000000000000000000000000000000000000000000000000000000000000000000000000000000000000000000000000000000000000000000000000000000000000000000000000000000F500000000000000000000
310
00000000000000000000000000000000000000000000000000000000000000000000000000000000000000000000000000000000000000000000000000000000000000000000000000F50000000000000000000000000000000000000000000000000000000000000000000000000000000000000000000000000000000000
310
00000000000000000000000000000000000000000000000000000000000000000000000000000000000000000000000000000000000000000000000000000000000000000000000000000000000000000000000000000000000000000000000000000000000000000000000000000000000000000000F50000000000000000
310
000000000000000000000000000000000000000000000000000000000000000000000000000000000000000000000000000000000000000000000000000000000000000000000000000000F5000000000000000000000000000000000000000000000000000000000000000000000000000000000000000000000000000000
310
000000000000000000000000000000000000000000000000000000000000000000000000000000000000000000000000000000000000000000000000000000000000000000002929290000000000000000000000000000000000000000000000000000000000000000000000002929290000000000000000F5000000000000
310
0000000000000000000000000000000000000000000000000000000000000000000000000000000000000000000000000000000000000000000000000000000000000000000000000000000000F500000000000000000000000000000000000000000000000000000000000029000000000000000000000000000000000000
310
0000000000000000002929292929292929292929292929290000000000000000000000000000000000000000000000000000290000000000000000000000000000000000000000002929290000000000000000000000000000000000000000000000000000000000000000000000002929290000000000000000F500000000
310
00000000000000000000000000000000000000000000000000000000000000000000000000000000000000000000000000000000000000000000000000000000000000000000000000000000000000F50000000000000000000000000000000000000000000000000000000000002929000000000000000000000000000000
310
00000000000000000000002929292929292929292929292929290000000000000000000000000000000000000000000000000029290000000000000000000000000000000000000000002929290000000000000000000000000000000000000000000000000000000000000000000000002929290000000000000000F50000
310
000000000000000000000000000000000000000000000000000000000000000000000000000000000000000000000000000000000000000000000000000000000000000000000000000000000000000000F5000000000000000000000000000000000000000000000000000000000000292929292929292929292929292929
310
292929292929292929292929292929292929292929292929292929292929292929292929292929292929292929292929292929292929290000000000000000000000000000000000000000000000290000000000292929292929292929000000000000000000000000000000000000000000000029000000000000000000F5
310
0000000000000000000000000000000000000000000000000000000000000000000000000000000000000000000000000000000000000000000000000000000000000000000000000000000000000000000000F500000000000000000000000000000000000000000000000000000000000029000000000000000000000000
310
00000000000000000000000000000000000000000000000000000000000000000000000000000000000000000000000000000000000000002900000000000000000000000000000000000000000000002900000000002929292929292929000000000000000000000000000000000000000000000000290000000000000000
310
00F50000000000000000000000000000000000000000000000000000000000000000000000000000000000000000000000000000000000000000000000000000000000000000000000000000000000000000000000F50000000000000000000000000000000000000000000000000000000000002900000000000000000000
310
00000000000000000000000000000000000000000000000000000000000000000000000000000000000000000000000000000000000000000000290000000000000000000000000000000000000000000000290000000000000000000000000000000000000000000000000000000000000000000029000029290000000000
310
000000F50000000000000000000000000000000000000000000000000000000000000000000000000000000000000000000000000000000000000000000000000000000000000000000000000000000000000000000000F5000000000000000000000000000000000029292929292929F5F5F5F5F5F529F5F5F5F5F5F5F5F5
310
F5F5F5F5F5F5F5F5F5F5F5F5F5F5F5F5F5F5F5F5F5F5F5F5F5F5F5F5F5F5F5F5F5F5F5F5F5F5F5F5F5F5F5F5F5F5F5F5F5F5F5F5F5F5F5F5F5F5F5F529F5F5F5F5F5F5F5F5F5F5F5000000000000000000002929292929292929292929292929292929292929292929F5F5F5F5F5F5F5F5F5F5292929292929292929290000
310
0000000000F50000000000000000000000000000000000000000000000000000000000000000000000000000000000000000000000000000000000000000000000000000000000000000000000000000000000000000000000F50000000000000000000000000000000000000029000000F5F5F5F5F5F5F529F5F5F5F5F5F5
310
F5F5F5F5F5F5F5F5F5F5F5F5F5F5F5F5F5F5F5F5F5F5F5F5F5F5F5F5F5F5F5F5F5F5F5F5F5F5F5F5F5F5F5F5F5F5F5F5F5F5F5F5F5F5F5F5F5F5F5F5F5F529F5F5F5F5F5F5F5F5F5F5F50000000000000000002929292929F5F5F5F5F5F5F5F5F5F5F5F5F5F5F5F5F5F5F5F5F5F5F5F5F5F5F5F5F5F5F50000290000000000
310
00000000000000F50000000000000000000000000000000000000000000000000000000000000000000000000000000000000000000000000000000000000000000000000000000000000000000000000000000000000000000000F5000000000000000000000000000000000000002900000000F5F500000000F500000000
310
F5F5F5F5F5F5F5F5F5F5F5F5F5F5000000000000000000F5F5F5F5F5F5F5F5F5F5F5F5F5F5000000000000000000F5F5F5F5F5F5F5F5F5F5F5F5F5F5F5000000F500000000F5000000F5F50000000000000000000000002929F500F500F5000000000000000000000000F50000F5F5F5F5F5F5F5F50000F5F5F52929292929
310
292900000000000000F50000000000000000000000000000000000000000000000000000000000000000000000000000000000000000000000000000000000000000000000000000000000000000000000000000000000000000000000F5000000000000000000000000000000000000002900000000F5F500000000F50000
310
0000F5000000000000000000000000F5000000000000000000F5000000000000000000000000F5000000000000000000F500000000000000000000000000F5000000F500000000F5000000F5F50000000000000000000000002929F500F500F5000000000000000000000000F50000F5F5000000000000F5F5F50000292929
310
0029290000000000000000F50000000000000000000000000000000000000000000000000000000000000000000000000000000000000000000000000000000000000000000000000000000000000000000000000000000000000000000000F5000000000000000000000000000000000029292900000000F5F500000000F5
310
00000000F5000000000000000000000000F5000000000000000000F5000000000000000000000000F5000000000000000000F500000000000000000000000000F5000000F500000000F5000000F5F5F500000000000000000000002929F500F500F5000000000000000000000000F50000F5F5000000000000F5F5F5000029
310
29290029290000000000000000F50000000000000000000000000000000000000000000000000000000000000000000000000000000000000000000000000000000000000000000000000000000000000000000000000000000000000000000000F5000000000000000000000000000000000029292900000000F5F5000000
310
00F500000000F5000000000000000000000000F5000000000000000000F5000000000000000000000000F5000000000000000000F500000000000000000000000000F5000000F500000000F5000000F5F5F5000000000000F5F5F5F5F52900F500F500F5000000000000000000000000F50000F5F5000000000000F5F5F500
310
002929290029000000000000000000F50000000000000000000000000000000000000000000000000000000000000000000000000000000000000000000000000000000000000000000000000000000000000000000000000000000000000000000000F5000000000000000000000000000000000029292900000000F5F500
310
000000F500000000F5000000000000000000000000F5000000000000000000F5000000000000000000000000F5000000000000000000F500000000000000000000000000F5000000F500000000F5000000F5F5F5F50000000000F5F5F5F5002900F500F500F5000000000000000000000000F50000F5F5000000000000F5F5
310
F500002929290000000000000000000000F50000000000000000000000000000000000000000000000000000000000000000000000000000000000000000000000000000000000000000000000000000000000000000000000000000000000000000000000F5000000000000000000000000000000000029292900000000F5
310
F500000000F500000000F5000000000000000000000000F5000000000000000000F5000000000000000000000000F5000000000000000000F500000000000000000000000000F5000000F500000000F5000000F5F5F5F50000000000F5F5F5F5002900F500F500F5000000000000000000000000F50000F5F5000000000000
310
00F5F50000292929F5F5F5F5F5000000000000F50000000000000000000000000000000000000000000000000000000000000000000000000000000000000000000000000000000000000000000000000000000000000000000000000000000000000000000000F50000000000000000000000000000000000292929000000
310
00F5F500000000F500000000F5000000000000000000000000F5000000000000000000F5000000000000000000000000F5000000000000000000F500000000000000000000000000F5000000F500000000F5000000F50000000000000000F5F50000002900F500F500F5000000000000000000000000F50000F5F500000000
310
000000F5F5000029292900F5F5F5F5F50000000000F50000000000000000000000000000000000000000000000000000000000000000000000000000000000000000000000000000000000000000000000000000000000000000000000000000000000000000000000F5000000000000000000000000000000000029292900
310
000000F5F500000000F500000000F5F5F5F5F5F5F5F5F5F5F5F5F5F5000000000000000000F5F5F5F5F5F5F5F5F5F5F5F5F5F5000000000000000000F5F5F5F5F5F5F5F5F5F5F5F5F5F5F5000000F500000000F5000000F50000000000000000F5F50000002900F500F500F5000000000000000000000000F50000F5F50000
310
0000000000F5F500002929290000F5F5F5F50000000000F50000000000000000000000000000000000000000000000000000000000000000000000000000000000000000000000000000000000000000000000000000000000000000000000000000000000000000000000F500000000000000000000000000000000002929
310
2900000000F5F500000000F50000000000000000000000000000000000000000000000000000000000000000000000000000000000000000000000000000000000000000000000000000000000000000F500000000F5000000F5000000000000000000000000002900F500F500F5000000000000000000000000F50000F5F5
310
00000000000000F5F500002929290000F5F500000000000000F50000000000000000000000000000000000000000000000000000000000000000000000000000000000000000000000000000000000000000000000000000000000000000000000000000000000000000000000F50000000000000000000000000000000000
310
29292900000000F5F500000000F50000000000000000000000000000000000000000000000000000000000000000000000000000000000000000000000000000000000000000000000000000000000000000F500000000F5000000F5000000000000000000000000002900F500F500F5000000000000000000000000F50000
310
F5F500000000000000F5F500002929290000000000000000000000F50000000000000000000000000000000000000000000000000000000000000000000000000000000000000000000000000000000000000000000000000000000000000000000000000000000000000000000000F5000000000000000000000000000000
310
000029292900000000F5F500000000F5F5F5F5F5F5F5F5F5F5F5F5F5F5F5F5F5F5F5F5F5F5F5F5F5F5F5F5F5F5F5F5F5F5F5F5F5F5F5F5F5F5F5F5F5F5F5F5F5F5F5F5F5F5F5F5F5F5F5F5F5F5F5F5F5F5F5F5F5F500000000F5000000F500000000000000000000002929292929F5F500F5000000000000000000000000F5
310
0000F5F500000000000000F5F500002929290000000000000000000000F50000000000000000000000000000000000000000000000000000000000000000000000000000000000000000000000000000000000000000000000000000000000000000000000000000000000000000000000F500000000000000000000000000
310
0000000000000000F5F5F5F5F5000000000000000000000000000000000000000000000000000000000000000000000000000000000000000000000000000000000000000000000000000000000000000000000000000000000000F5F5F5F5F5F5F5000000000000000000292929000000F5F5F50000000000000000000000
310
00F5F5F5F5F5F5F5F5F5F5F5F5F5F500002929290000000000000000000000F50000000000000000000000000000000000000000000000000000000000000000000000000000000000000000000000000000000000000000000000000000000000000000000000000000000000000000000000F50000000000000000000000
310
000000000000000029000000F5F5F5000000000000000000000000000000000000000000000000000000000000000000000000000000000000000000000000000000000000000000000000000000000000000000000000000000000000F5F50000F50000000000000000000000292929000000F500F5000000000000000000
310
000000F500F5F5F5F5F5F5F5F5F5F5F5F500002929290000000000000000000000F50000000000000000000000000000000000000000000000000000000000000000000000000000000000000000000000000000000000000000000000000000000000000000000000000000000000000000000000F5000000000000000000
310
0000000000000000000029000000F5F5F5000000000000000000000000000000000000000000000000000000000000000000000000000000000000000000000000000000000000000000000000000000000000000000000000000000000000F5F50000F50000000000000000000000292929000000F500F500000000000000
310
0000000000F500F5F5F500000000000000F5F500002929290000000000000000000000F50000000000000000000000000000000000000000000000000000000000000000000000000000000000000000000000000000000000000000000000000000000000000000000000000000000000000000000000F500000000000000
310
00000000000000000000000029000000F5F5F5000000000000000000000000000000000000000000000000000000000000000000000000000000000000000000000000000000000000000000000000000000000000000000000000000000000000F5F50000F50000000000000000000000292929000000F5F5F50000000000
310
00000000000000F5F5F5F5F5F5F5F5F5F5F5F5F5F50000F500000000000000000000000000F50000000000000000000000000000000000000000000000000000000000000000000000000000000000000000000000000000000000000000000000000000000000000000000000000000000000000000000000F50000000000
310
00000000000000000000000029292929292929F5F5F5F5F5F5F5F5F5F5F5F5F5F5F5F5F5F5F5F5F5F5F5F5F5F5F5F5F5F5F5F5F5F5F5F5F5F5F5F5F5F5F5F5F5F5F5F5F5F5F5F5F5F5F5F5F5F5F5F5F5F5F5F5F5F5F5F5F5F5F5F5F5F5F5F5F5F5F5F5F5F5F5F5F5F500000000000000000000292929000000F5F5F5F5F5F5
310
F5F5F5F5F5F5F5F5F5F5F5F5F5F5F5F5F5F5F5F5F5F5F5F5F52929292900000000000000000000F50000000000000000000000000000000000000000000000000000000000000000000000000000000000000000000000000000000000000000000000000000000000000000000000000000000000000000000000F5000000
310
00000000000000000000000000000000000000000000000000000000000000000000000000000000000000000000000000000000000000000000000000000000000000000000000000000000000000000000000000000000000000000000000000000000000000000000000000000000000000000029292900000000000000
310
0000000000000000000000000000000000000000000000000000000029000000000000000000000000F50000000000000000000000000000000000000000000000000000000000000000000000000000000000000000000000000000000000000000000000000000000000000000000000000000000000000000000000F500
310
00000000000000000000000000000000000000000000000000000000000000000000000000000000000000000000000000000000000000000000000000000000000000000000000000000000000000000000000000000000000000000000000000000000000000000000000000000000000000000000002929290000000000
310
00000000000000000000000000000000000000000000000000000000000029000000000000000000000000F50000000000000000000000000000000000000000000000000000000000000000000000000000000000000000000000000000000000000000000000000000000000000000000000000000000000000000000000
310
F5000000000000000000000000000000000000000000000000000000000000000000000000000000000000000000000000000000000000000000000000000000000000000000000000000000000000000000000000000000000000000000000000000000000000000000000000000000000000000000000000292929000000
310
000000000000000000000000000000000000000000000000000000000000000029000000000000000000000000F5000000000000000000000000000000000000000000000000000000000000000000000000000000000000000000000000000000000000000000000000000000000000000000000000000000000000000000
310
0000F500000000000000000000000000000000000000000000000000000000000000000000000000000000000000000000000000000000000000000000000000000000000000000000000000000000000000000000000000000000000000000000000000000000000000000000000000000000000000000000000029292900
310
0000000000000000000000000000000000000000000000000000000000000000000000000000000000000000000000F500000000000000000000000000000000000000000000000000000000000000000000000000000000000000000000000000000000000000000000000000000000000000000000000000000000000000
310
00000000F50000000000000000000000000000000000000000000000000000000000000000000000000000000000000000000000000000000000000000000000000000000000000000000000000000000000000000000000000000000000000000000000000000000000000000000000000000000000000000000000002929
310
29000000000000000000000000000000000000000000000000000000000000000000000000000000000000000000000000F50000000000000000000000000000000000000000000000000000000000000000000000000000000000000000000000000000000000000000000000000000000000000000000000000000000000
310
000000000000F5000000000000000000000000000000000000000000000000000000000000000000000000000000000000000000000000000000000000000000000000292929292929292929000000000000000000000000000000000000000000000000000000000000000000000000000000000000000000000000000000
310
292929000000000000000000000000000000000000000000000000000000000000000000000000000000000000000000000000F5000000000000000000000000000000000000000000000000000000000000000000000000000000000000000000000000000000000000000000000000000000000000000000000000000000
310
0000000000000000F500000000000000000000000000000000000000000000000000000000000000000000000000000000000000000000000000000000000000000000000029292929292929290000000000000000000000000000000000000000000000000000000000000000000000000000000000000000000000000000
310
0000292929000000000000000000000000000000000000000000000000000000000000000000000000000000000000000000000000F500000000000000000000000000000000000000000000000000000000000000000000000000000000000000000000000000000000000000000000000000000000000000000000000000
310
00000000000000000000F50000000000000000000000000000000000000000000000000000000000000000000000000000000000000000000000000000000000000000000000000000000000000000000000000000000000000000000000000000000000000000000000000000000000000000000000000000000000000000
310
00000000292929000000000000000000000000000000000000000000000000000000000000000000000000000000000000000000000000F50000000000000000000000000000000000000000000000000000000000000000000000000000000000000000000000000000000000000000000000000000000000000000000000
310
000000000000000000000000F5000000000000000000000000000000000000000000000029000000000000000000000000000000000000000029292929292929292929292929292929292929292929292929292929292929292929292929292929292900000000000000000000000000000000000000002900000000000000
310
000000000000292929000000000000000000000000000000000000000000000000000000000000000000000000000000000000000000000000F5000000000000000000000000000000000000000000000000000000000000000000000000000000000000000000000000000000000000000000000000000000000000000000
310
0000000000000000000000000000F500000000000000000000000000000000000000000000002900290000000000000000000000000000000000002929292929292929292929292929292929292929292929292929292929292929292929292929292929290000000000000000000000000000000000000029290000000000
310
0000000000000000000000000000000000000000000000000000000000000000000000000000000000000000000000000000000000000000000000F500000000000000000000000000000000000000000000000000000000000000000000000000000000000000000000000000000000000000000000000000000000000000
310
00000000000000000000000000000000F50000000000000000000000000000000000000000000000292929292929292929292929292929292929292929292929292929292929292929292929292929292929292929292929292929292929292929292929292929292929292929292929292929292929292929292929000000
310
00000000000000000000000000000000000000000000000000000000000000000000000000000000000000000000000000000000000000000000000000F50000000000000000000000000000000000000000000000000000000000000000000000000000000000000000000000000000000000000000000000000000000000
310
000000000000000000000000000000000000F5000000000000000000000000000029292929290000002929290000000000000000000000000000000000000000000000000000000000000029292929292929292929292929292929290000000000000000000000000000000000000000000000000000000000000000292929
310
000000000000000000000000000000000000000000000000000000000000000000000000000000000000000000000000000000000000000000000000000000F5000000000000000000000000000000000000000000000000000000000000000000000000000000000000000000000000000000000000000000000000000000
310
0000000000000000000000000000000000000000F500000000000000000000000000002929292929000029292929002900000000000000000000000000000000000000000000000000000000002929292929292929292929292929292929000000000000000000000000000000000000000000000000000000000000290029
310
2929000029292900000000000000000000000000000000000000000000000000000000000000000000000000000000000000000000000000000000000000000000F500000000000000000000000000000000000000000000000000000000000000000000000000000000000000000000000000000000000000000000000000
310
00000000000000000000000000000000000000000000F50000000000000000000000000000292929292929292929292929292929292929292929292929292929292929292929292929292929292929292929292929292929292929292929292900292929292929292929292929292929292929292929292929292929292929
310
29292929292929292900000000000000000000000000000000000000000000000000000000000000000000000000000000000000000000000000000000000000000000F50000000000000000000000000000000000000000000000000000000000000000000000000000000000000000000000000000000000000000000000
310
000000000000000000000000000000000000000000000000F5000000000000000000000000000000000000000000002929290000000000000000000000000000000000000000000000000000000000000000000000000000000000000000000000000000000000000000000000000000000000000000000000000000000000
310
000000292929000029292900000000000000000000000000000000000000000000000000000000000000000000000000000000000000000000000000000000000000000000F5000000000000000000000000000000000000000000000000000000000000000000000000000000000000000000000000000000000000000000
310
0000000000000000000000000000000000000000000000000000F500000000000000000000000000000000000000000000292929000000000000000000000000000000000000000000000000000000000000000000000000000000000000000000000000000000000000000000000000000000000000000000000000000000
310
0000000000292929000000000000000000000000000000000000000000000000000000000000000000000000000000000000000000000000000000000000000000000000000000F500000000000000000000000000000000000000000000000000000000000000000000000000000000000000000000000000000000000000
310
00000000000000000000000000000000000000000000000000000000F500000000000000000000000000000000292929292929292929292929292929F5F5F5F5F5F5F5F5F5F5F5F5F5F5F5F5F5F5F5F5F5F5F5F5F5F5F5F5F5F5F5F5F5F5F5F5F5F5F5F5F5F5F5F5F5F5F5F5F5F5F5F5F5F5F5F5F5F5F5F5F5F5F5F5F5F5F5
310
F5F50000000000292929000000000000000000000000000000000000000000000000000000000000000000000000000000000000000000000000000000000000000000000000000000F50000000000000000000000000000000000000000000000000000000000000000000000000000000000000000000000000000000000
310
000000000000000000000000000000000000000000000000000000000000F500000000000000000000000000000000000029000000292929F500000000F50000000000000000000000000000000000000000000000000000000000000000000000000000000000000000000000000000000000000000000000000000000000
310
000000F5F5F5F5F5F5292929000000000000000000000000000000000000000000000000000000000000000000000000000000000000000000000000000000000000000000000000000000F5000000000000000000000000000000000000000000000000000000000000000000000000000000000000000000000000000000
310
0000000000000000000000000000000000000000000000000000000000000000F500000000000000000000000000002929292929292929292929F5F5F5F5F5F5F5F5F5F5F5F5F5F5F5F5F5F5F5F5F5F5F5F5F5F5F5F5F5F5F5F5F5F5F5F5F5F5F5F5F5F5F5F5F5F5F5F5F5F5F5F5F5F5F5F5F5F5F5F5F5F5F5F5F5F5F5F5F5
310
F5F5F5F5F5F5F5F5F5F5F52929F5000000000000000000000000000000000000000000000000000000000000000000000000000000000000000000000000000000000000000000000000000000F500000000000000000000000000000000000000000000000000000000000000000000000000000000000000000000000000
310
00000000000000000000000000000000000000000000000000000000000000000000F500000000000000000000000000000000290029002929F5F5F5F5000000000000000000000000000000000000000000000000000000000000000000000000000000000000000000000000000000000000000000000000000000000000
310
000000000000000000000000F5F5F5F5F50000000000000000000000000000000000000000000000000000000000000000000000000000000000000000000000000000000000000000000000000000F50000000000000000000000000000000000000000000000000000000000000000000000000000000000000000000000
310
000000000000000000000000000000000000000000000000000000000000000000000000F500000000000000000000000000000000290029002929000000F500000000000000000000000000000000000000000000000000000000000000000000000000000000000000000000000000000000000000000000000000000000
310
0000000000000000000000000000F5000000F50000000000000000000000000000000000000000000000000000000000000000000000000000000000000000000000000000000000000000000000000000F5000000000000000000000000000000000000000000000000000000000000000000000000000000000000000000
310
0000000000000000000000000000000000000000000000000000000000000000000000000000F500000000000000000000000000000000290029002900000000F50000000000000000000000000000000000000000000000000000000000000000000000000000000000000000000000000000000000000000000000000000
310
00000000000000000000000000000000F5000000F50000000000000000000000000000000000000000000000000000000000000000000000000000000000000000000000000000000000000000000000000000F500000000000000000000000000000000000000000000000000000000000000000000000000000000000000
310
00000000000000000000000000000000000000000000000000000000000000000000000000000000F500000000000000000000000000000000290029002900000000F5000000000000000000000000000000000000000000000000000000000000000000000000000000000000000000000000000000000000000000000000
310
000000000000000000000000000000000000F5000000F50000000000000000000000000000000000000000000000000000000000000000000000000000000000000000000000000000000000000000000000000000F50000000000000000000000000000000000000000000000000000000000000000000000000000000000
310
000000000000000000000000000000000000000000000000000000000000000000000000000000000000F500000000000000000000000000000000290029292929000000F500000000000000000000000000000000000000000000000000000000000000000000000000000000000000000000000000000000000000000000
310
0000000000000000000000000000000000000000F5000000F50000000000000000000000000000000000000000000000000000000000000000000000000000000000000000000000000000000000000000000000000000F5000000000000000000000000000000000000000000000000000000000000000000000000000000
310
0000000000000000000000000000000000000000000000000000000000000000000000000000000000000000F500000000000000000000000000000000290029292929000000F50000000000000000000000000000000000000000000000000000000000000000000000000000000000000000000000000000000000000000
310
00000000000000000000000000000000000000000000F5000000F50000000000000000000000000000000000000000000000000000000000000000000000000000000000000000000000000000000000000000000000000000F500000000000000000000000000000000000000000000000000000000000000000000000000
310
00000000000000000000000000000000000000000000000000000000000000000000000000000000000000000000F500000000000000000000000000000000290029292929000000F500000000000000000000000000000000000000000000000000000000000000000000F5F5F5F5F5F50000000000000000000000000000
310
000000000000000000000000000000000000000000000000F5000000F50000000000000000000000000000000000000000000000000000000000000000000000000000000000000000000000000000000000000000000000000000F50000000000000000000000000000000000000000000000000000000000000000000000
310
000000000000000000000000000000000000000000000000000000000000000000000000000000000000000000000000F500000000000000000000000000000000290029292929000000F500000000000000000000000000000000000000000000000000000000000000000000F5F5F5F5F5F5000000000000000000000000
310
0000000000000000000000000000000000000000000000000000F5000000F50000000000000000000000000000000000000000000000000000000000000000000000000000000000000000000000000000000000000000000000000000F5000000000000000000000000000000000000000000000000000000000000000000
310
0000000000000000000000000000000000000000000000000000000000000000000000000000000000000000000000000000F500000000000000000000000000000000292929292929000000F50000000000000000000000000000000000000000000000000000000000000000000000000000000000000000000000000000
310
00000000000000000000000000000000000000000000000000000000F5000000F50000000000000000000000000000000000000000000000000000000000000000000000000000000000000000000000000000000000000000000000000000F500000000000000000000000000000000000000000000000000000000000000
310
00000000000000000000000000000000000000000000000000000000000000000000000000000000000000000000000000000000F500000000000000000000000000000000292929292929000000F5000000000000000000000000000000000000000000000000000000000000000000000000000000000000000000000000
310
000000000000000000000000000000000000000000000000000000000000F5000000F50000000000000000000000000000000000000000000000000000000000000000000000000000000000000000000000000000000000000000000000000000F50000000000000000000000000000000000000000000000000000000000
310
000000000000000000000000000000000000000000000000000000000000000000000000000000000000000000000000000000000000F500000000000000000000000000000000292929292929000000F500000000000000000000000000000000000000000000000000000000000000000000000000000000000000000000
310
0000000000000000000000000000000000000000000000000000000000000000F5000000F50000000000000000000000000000000000000000000000000000000000000000000000000000000000000000000000000000000000000000000000000000F5000000000000000000000000000000000000000000000000000000
310
0000000000000000000000000000000000000000000000000000000000000000000000000000000000000000000000000000000000000000F500000000000000000000000000000000292929292929000000F50000000000000000000000000000000000000000000000000000000000000000000000000000000000000000
310
00000000000000000000000000000000000000000000000000000000000000000000F5000000F50000292929000000000000000000000000000000000000000000000000000000000000000000000000000000000000000000000000000000000000000000F500000000000000000000000000000000000000000000000000
310
00000000000000000000000000000000000000000000000000000000000000000000000000000000000000000000000000000000000000000000F500000000000000000000000000000000292929292929000000F5000000000000000000000000000000000000000000000000000000000000000000000000000000000000
310
000000000000000000000000000000000000000000000000000000000000000000000000F5000000F50000292929000000000000000000000000000000000000000000000000000000000000000000000000000000000000000000000000000000000000000000F50000000000000000000000000000000000000000000000
310
000000000000000000000000000000000000000000000000000000000000000000000000000000000000000000000000000000000000000000000000F500000000000000000000000000000000292929292929F5F5F5F500000000000000000000000000000000000000000000000000000000000000000000000000000000
310
0000000000000000000000000000000000000000000000000000000000000000000000000000F5F5F5F5F50000292929000000000000000000000000000000000000000000000000000000000000000000000000000000000000000000000000000000000000000000F5000000000000000000000000000000000000000000
310
0000000000000000000000000000000000000000000000000000000000000000000000000000000000000000000000000000000000000000000000000000F500000000000000000000000000000000292929292929F5F500F50000000000000000000000000000000000000000000000000000000000000000000000000000
310
00000000000000000000000000000000000000000000000000000000000000000000000000000000F500F5F5000000292929000000000000000000000000000000000000000000000000000000000000000000000000000000000000000000000000000000000000000000F500000000000000000000000000000000000000
310
00000000000000000000000000000000000000000000000000000000000000000000000000000000000000000000000000000000000000000000000000000000F500000000000000000000000000000000292929292929F5F5F5F5000000000000000000000000000000000000000000000000000000000000000000000000
310
000000000000000000000000000000000000000000000000000000000000000000000000000000000000F5F5F5F5000000000000000000000000000000000000000000000000000000000000000000000000000000000000000000000000000000000000000000000000000000F50000000000000000000000000000000000
310
000000000000000000000000000000000000000000000000000000000000000000000000000000000000000000000000000000000000000000000000000000000000F50000000000000000000000000000000029292929292900F5F5F5F5F5F5F5F5F5F5F5F5F5F5F5F5F5F5F5F5F5F5F5F5F5F5F5F5F5F5F5F5F5F5F5F5F5
310
F5F5F5F5F5F5F5F5F5F5F5F5F5F5F5F5F5F5F5F5F5F5F5F5F5F5F5F5F5F5F5F5F5F5F5F5F5F5F5F5F5F5F5F5F5F5F5F5F50000002900000000000000000000000000000000000000000000000000000000000000000000000000000000000000000000000000000000000000000000F5000000000000000000000000000000
310
0000000000000000000000000000000000000000000000000000000000000000000000000000000000000000000000000000000000000000000000000000000000000000F50000000000000000000000000000000029000029292900F5F5000000000000000000000000000000000000000000000000000000000000000000
310
0000000000000000000000000000000000000000000000000000000000000000000000000000000000000000000000000000F52929292929290000000000000000000000000000000000000000000000000000000000000000000000000000000000000000000000000000000000000000F500000000000000000000000000
310
00000000000000000000000000000000000000000000000000000000000000000000000000000000000000000000000000000000000000000000000000000000000000000000F50000000000000000000000000000000029002929292900F5F500000000000000000000000000000000000000000000000000000000000000
310
00000000000000000000000000000000000000000000000000000000000000000000000000000000000000000000000000000000F5F500002929000000000000000000000000000000000000000000000000000000000000000000000000000000000000000000000000000000000000000000F50000000000000000000000
310
000000000000000000000000000000000000000000000000000000000000000000000000000000000000000000000000000000000000000000000000000000000000000000000000F50000000000000000000000000000000029002929292900F5F50000000000000000000000000000000000000000000000000000000000
310
000000000000000000000000000000000000000000000000000000000000000000000000000000000000000000000000000000000000F50000002929002900000000000000000000000000000000000000000000000000000000000000000000000000000000000000000000000000000000000000F5000000000000000000
310
0000000000000000000000000000000000000000000000000000000000000000000000000000000000000000000000000000000000000000000000000000000000000000000000000000F50000000000000000000000000000000029002900290000F5F5000000000000000000000000000000000000000000000000000000
310
0000000000000000F5F5F5F5F5F5F50000000000000000000000000000000000000000000000000000000000000000000000000000000000F50000002929292900000000000000000000000000000000000000000000000000000000000000000000000000000000000000000000000000000000000000F500000000000000
310
00000000000000000000000000000000000000000000000000000000000000000000000000000000000000000000000000000000000000000000000000000000000000000000000000000000F50000000000000000000000000000000029002900290000F5F500000000000000000000000000000000000000000000000000
310
00000000000000000000F5F5F5F5F5F5F50000000000000000000000000000000000000000000000000000000000000000000000000000000000F5F529292929292929000000000000000000000000000000000000000000000000000000000000000000000000000000000000000000000000000000000000F50000000000
310
000000000000000000000000000000000000000000000000000000000000000000000000000000000000000000000000000000000000000000000000000000000000000000000000000000000000F50000000000000000000000000000000029002900290000F5F50000000000000000000000000000000000000000000000
310
000000000000000000000000000000000000000000000000000000000000000000000000000000000000000000000000000000000000000000000000F5F5F5002900000000000000000000000000000000000000000000000000000000000000000000000000000000000000000000000000000000000000000000F5000000
310
0000000000000000000000000000000000000000000000000000000000000000000000000000000000000000000000000000000000000000000000000000000000000000000000000000000000000000F50000000000000000000000000000000029002900290000F5F5000000000000000000000000000000000000000000
310
0000000000000000000000000000000000000000000000000000000000000000000000000000000000000000000000000000000000000000000000000000F50000002900000000000000000000000000000000000000000000000000000000000000000000000000000000000000000000000000000000000000000000F500
310
00000000000000000000000000000000000000000000000000000000000000000000000000000000000000000000000000000000000000000000000000000000000000000000000000000000000000000000F50000000000000000000000000000000029002900292900F5F500000000000000000000000000000000000000
310
00000000000000000000000000000000000000000000000000000000000000000000000000000000000000000000000000000000000000000000000000000000F5F500002900000000000000000000000000000000000000000000000000000000000000000000000000000000000000000000000000000000000000000000
310
F50000000000000000000000000000000000000000000000000000000000000000000000000000000000000000000000000000000000000000000000000000000000000000000000000000000000000000000000F500000000000000000000000000000000290029002929F5F5F50000000000000000000000000000000000
310
000000000000000000000000000000000000000000000000000000000000000000000000000000000000000000000000000000000000000000000000000000000000F5F5F529292929292900000000000000000000000000000000000000000000000000000000000000000000000000000000000000000000000000000000
310
0000F50000000000000000000000000000000000000000000000000000000000000000000000000000000000000000000000000000000000000000000000000000000000000000000000000000000000000000000000F5000000000000000000000000000029292929292929292929F5F5F5F5F5F5F5F5F5F5F5F5F5F5F5F5
310
F5F5F5F5F5F5F5F5F5F5F5F5F5F5F5F5F5F5F5F5F5F5F5F5F5F5F5F5F5F5F5F5F5F5F5F5F5F5F5F5F5F5F5F5F5F5F5F5F5F5F5F5F5F5F5F5F5F5F5F5F5F5F5F5F5F5F5F5F5F5F52900000029000000000000000000000000000000000000000000000000000000000000000000000000000000000000000000000000000000
310
00000000F50000000000000000000000000000000000000000000000000000000000000000000000000000000000000000000000000000000000000000000000000000000000000000000000000000000000000000000000F5000000000000000000000000000000002900290000F5F529F5F5000000000000000000000000
310
000000000000000000000000000000000000000000000000000000000000000000000000000000000000000000000000000000000000000000000000000000000000F5F5F5F5F5F5F5290000292900000000000000000000000000000000000000000000000000000000000000000000000000000000000000000000000000
310
000000000000F50000000000000000000000000000000000000000000000000000000000000000000000000000000000000000000000000000000000000000000000000000000000000000000000000000000000000000000000F500000000000000000000000000002929292929290000002900F500000000000000000000
310
0000000000000000000000000000000000000000000000000000000000000000000000000000000000000000000000000000000000000000000000000000000000000000F500000000000029000000290000000000000000000000000000000000000000000000000000000000000000000000000000000000000000000000
310
0000000000000000F50000000000000000000000000000000000000000000000000000000000000000000000000000000000000000000000000000000000000000000000000000000000000000000000000000000000000000000000F50000000000000000000000000000292929292929292929292929F5F5F5F5F5F5F5F5
310
F5F5F5F5F5F5F5F5F5F5F5F5F5F5F5F5F5F5F5F5F5F5F5292929292929292929292929292929F5F5F5F5F5F5F5F5F5F5F5F5F5F5F5F5F5F5F5F5F5F5F5F5F5F5F5F5F5F5F5F5292929292929292929292929000000000000000000000000000000000000000000000000000000000000000000000000000000000000000000
310
00000000000000000000F50000000000000000000000000000000000000000000000000000000000000000000000000000000000000000000000000000000000000000000000000000000000000000000000000000000000000000000000F50000000000000000000000000000292929292929000000290029292929292929
310
29292929292929292929292929292929292929292929292929292929292929292929292929292929292929292929292929292929292929292929292929292929292929292929292929000000000000292929292900000000000000000000000000000000000000000000000000000000000000000000000000000000000000
310
000000000000000000000000F50000000000000000000000000000000000000000000000000000000000000000000000000000000000000000000000000000000000000000000000000000000000000000000000000000000000000000000000F5000000000000000000000000000029292929292900000029002929290000
310
00000000000000000000000000000000000000000000000000000029292929292929292929292929292900000000000000000000000000000000000000000000000000000000000000292900000000000029290000000000000000000000000000000000000000000000000000000000000000000000000000000000000000
310
0000000000000000000000000000F50000000000000000000000000000000000000000000000000000000000000000000000000000000000000000000000000000000000000000000000000000000000000000000000000000000000000000000000F500000000000000000000000000002929292929290000002900290000
310
00000000000000000000000000000000000000000000000000000000000000000000000000000000000000000000000000000000000000000000000000000000000000000000000000000000290000000000002929290000000000000000000000000000000000000000000000000000000000000000000000000000000000
310
00000000000000000000000000000000F50000000000000000000000000000000000000000000000000000000000000000000000000000000000000000000000000000000000000000000000000000000000000000000000000000000000000000000000F50000000000000000000000000000292929292929000000290000
310
00000000000000000000000000000000000000000000000000000000000000000000000000000000000000000000000000000000000000000000000000000000000000000000000000000000000000000000000000292929000000000000000000000000000000000000000000000000000000000000000000000000000000
310
000000000000000000000000000000000000F50000000000000000000000000000000000000000000000000000000000000000000000000000000000000000000000000000000000000000000000000000000000000000000000000000000000000000000000F5000000000000000000000000000029292929292900000029
310
00000000000000000000000000000000000000000000000000000000000000000000000000000000000000000000000000000000000000000000000000000000000000000000000000000000000000000000000000000029292900000000000000000000000000000000000000000000000000000000000000000000000000
310
0000000000000000000000000000000000000000F50000000000000000000000000000000000000000000000000000000000000000000000000000000000000000000000000000000000000000000000000000000000000000000000000000000000000000000000F500000000000000000000000000002929292929290000
310
00290000000000000000000000000000000000000000000000000000000000000000000000000000000000000000000000000000000000000000000000000000000000000000000000000000000000000000000000000000002900000000000000000000000000000000000000000000000000000000000000000000000000
310
00000000000000000000000000000000000000000000F50000000000000000000000000000000000000000000000000000000000000000000000000000000000000000000000000000000000000000000000000000000000000000000000000000000000000000000000F50000000000000000000000000000292929292929
310
00000029000000000000000000000000000000000000000000000000000000000000000000000000000000000000000000000000000000000000000000000000000000000000000000000000000000000000000000000000000000290000000000000000000000000000000000000000000000000000000000000000000000
310
000000000000000000000000000000000000000000000000F5000000000000000000000000000000000000000000000000000000000000000000000000000000
  0
XRECORD
  5
E0AC
102
{ACAD_REACTORS
330
1A6B
102
}
330
1A6B
100
AcDbXrecord
280
     1
102
MATERIAL
148
0.0
149
0.0
149
0.0
 93
        0
 94
      127
282
     0
 72
     0
 77
     0
171
     0
175
     0
179
     0
273
     0
  0
XRECORD
  5
1A6D
102
{ACAD_REACTORS
330
1A6B
102
}
330
1A6B
100
AcDbXrecord
280
     1
270
     1
271
     1
  0
XRECORD
  5
1A6C
102
{ACAD_REACTORS
330
1A6B
102
}
330
1A6B
100
AcDbXrecord
280
     1
270
     1
271
     1
  0
XRECORD
  5
1A70
102
{ACAD_REACTORS
330
1A6B
102
}
330
1A6B
100
AcDbXrecord
280
     1
270
     1
271
     1
  0
XRECORD
  5
1A6F
102
{ACAD_REACTORS
330
1A6B
102
}
330
1A6B
100
AcDbXrecord
280
     1
270
     1
271
     1
  0
XRECORD
  5
1A71
102
{ACAD_REACTORS
330
1A6B
102
}
330
1A6B
100
AcDbXrecord
280
     1
270
     1
271
     1
  0
XRECORD
  5
1A6E
102
{ACAD_REACTORS
330
1A6B
102
}
330
1A6B
100
AcDbXrecord
280
     1
270
     1
271
     1
  0
XRECORD
  5
E0AB
102
{ACAD_REACTORS
330
1A63
102
}
330
1A63
100
AcDbXrecord
280
     1
102
MATERIAL
148
0.0
149
0.0
149
0.0
 93
        0
 94
      127
282
     0
 72
     0
 77
     0
171
     0
175
     0
179
     0
273
     0
  0
XRECORD
  5
1A65
102
{ACAD_REACTORS
330
1A63
102
}
330
1A63
100
AcDbXrecord
280
     1
270
     1
271
     1
  0
XRECORD
  5
1A64
102
{ACAD_REACTORS
330
1A63
102
}
330
1A63
100
AcDbXrecord
280
     1
270
     1
271
     1
  0
XRECORD
  5
1A68
102
{ACAD_REACTORS
330
1A63
102
}
330
1A63
100
AcDbXrecord
280
     1
270
     1
271
     1
  0
XRECORD
  5
1A67
102
{ACAD_REACTORS
330
1A63
102
}
330
1A63
100
AcDbXrecord
280
     1
270
     1
271
     1
  0
XRECORD
  5
1A69
102
{ACAD_REACTORS
330
1A63
102
}
330
1A63
100
AcDbXrecord
280
     1
270
     1
271
     1
  0
XRECORD
  5
1A66
102
{ACAD_REACTORS
330
1A63
102
}
330
1A63
100
AcDbXrecord
280
     1
270
     1
271
     1
  0
XRECORD
  5
E0AD
102
{ACAD_REACTORS
330
1A73
102
}
330
1A73
100
AcDbXrecord
280
     1
102
MATERIAL
148
0.0
149
0.0
149
0.0
 93
        0
 94
      127
282
     0
 72
     0
 77
     0
171
     0
175
     0
179
     0
273
     0
  0
XRECORD
  5
1A75
102
{ACAD_REACTORS
330
1A73
102
}
330
1A73
100
AcDbXrecord
280
     1
270
     1
271
     1
  0
XRECORD
  5
1A74
102
{ACAD_REACTORS
330
1A73
102
}
330
1A73
100
AcDbXrecord
280
     1
270
     1
271
     1
  0
XRECORD
  5
1A78
102
{ACAD_REACTORS
330
1A73
102
}
330
1A73
100
AcDbXrecord
280
     1
270
     1
271
     1
  0
XRECORD
  5
1A77
102
{ACAD_REACTORS
330
1A73
102
}
330
1A73
100
AcDbXrecord
280
     1
270
     1
271
     1
  0
XRECORD
  5
1A79
102
{ACAD_REACTORS
330
1A73
102
}
330
1A73
100
AcDbXrecord
280
     1
270
     1
271
     1
  0
XRECORD
  5
1A76
102
{ACAD_REACTORS
330
1A73
102
}
330
1A73
100
AcDbXrecord
280
     1
270
     1
271
     1
  0
CELLSTYLEMAP
  5
E0A4
102
{ACAD_REACTORS
330
71A7
102
}
330
71A7
100
AcDbCellStyleMap
 90
        3
300
CELLSTYLE
  1
TABLEFORMAT_BEGIN
 90
        5
170
     1
 91
        0
 92
    32768
 62
   257
 93
        1
300
CONTENTFORMAT
  1
CONTENTFORMAT_BEGIN
 90
        0
 91
        0
 92
      512
 93
        0
300

 40
0.0
140
1.0
 94
        5
 62
     0
340
1AA6
144
0.25
309
CONTENTFORMAT_END
171
     0
 94
        0
309
TABLEFORMAT_END
  1
CELLSTYLE_BEGIN
 90
        1
 91
        1
300
_TITLE
309
CELLSTYLE_END
300
CELLSTYLE
  1
TABLEFORMAT_BEGIN
 90
        5
170
     1
 91
        0
 92
        0
 62
   257
 93
        1
300
CONTENTFORMAT
  1
CONTENTFORMAT_BEGIN
 90
        0
 91
        0
 92
      512
 93
        0
300

 40
0.0
140
1.0
 94
        5
 62
     0
340
1AA6
144
0.18
309
CONTENTFORMAT_END
171
     0
 94
        0
309
TABLEFORMAT_END
  1
CELLSTYLE_BEGIN
 90
        2
 91
        1
300
_HEADER
309
CELLSTYLE_END
300
CELLSTYLE
  1
TABLEFORMAT_BEGIN
 90
        5
170
     1
 91
        0
 92
        0
 62
   257
 93
        1
300
CONTENTFORMAT
  1
CONTENTFORMAT_BEGIN
 90
        0
 91
        0
 92
      512
 93
        0
300

 40
0.0
140
1.0
 94
        2
 62
     0
340
1AA6
144
0.18
309
CONTENTFORMAT_END
171
     0
 94
        0
309
TABLEFORMAT_END
  1
CELLSTYLE_BEGIN
 90
        3
 91
        2
300
_DATA
309
CELLSTYLE_END
  0
XRECORD
  5
E0DE
102
{ACAD_REACTORS
330
71A7
102
}
330
71A7
100
AcDbXrecord
280
     1
102
ACAD_ROUNDTRIP_PRE2007_TABLESTYLE
 90
      512
 91
        0
  1

 92
      512
 93
        0
  2

 94
      512
 95
        0
  3

  0
XRECORD
  5
E0B9
102
{ACAD_REACTORS
330
E0B8
102
}
330
E0B8
100
AcDbXrecord
280
     1
102
RTVSPropertyOp0
 70
     1
102
RTVSPropertyOp1
 70
     1
102
RTVSPropertyOp2
 70
     1
102
RTVSPropertyOp3
 70
     1
102
RTVSPropertyOp4
 70
     1
102
RTVSPropertyOp5
 70
     1
102
RTVSPropertyOp6
 70
     1
102
RTVSPropertyOp7
 70
     1
102
RTVSPropertyOp8
 70
     1
102
RTVSPropertyOp9
 70
     1
102
RTVSPropertyOp10
 70
     1
102
RTVSPropertyOp11
 70
     1
102
RTVSPropertyOp12
 70
     1
102
RTVSPropertyOp13
 70
     1
102
RTVSPropertyOp14
 70
     1
102
RTVSPropertyOp15
 70
     1
102
RTVSPropertyOp16
 70
     1
102
RTVSPropertyOp17
 70
     1
102
RTVSPropertyOp18
 70
     1
102
RTVSPropertyOp19
 70
     1
102
RTVSPropertyOp20
 70
     1
102
RTVSPropertyOp21
 70
     1
102
RTVSPropertyOp22
 70
     1
102
RTVSPropertyOp23
 70
     1
102
RTVSPropertyOp24
 70
     1
102
RTVSPropertyOp25
 70
     1
102
RTVSPropertyOp26
 70
     1
102
RTVSPropertyOp27
 70
     1
102
RTVSPropertyOp28
 70
     1
102
RTVSPropertyOp29
 70
     1
102
RTVSPropertyOp30
 70
     1
102
RTVSPropertyOp31
 70
     1
102
RTVSPropertyOp32
 70
     1
  0
XRECORD
  5
E0B7
102
{ACAD_REACTORS
330
E0B6
102
}
330
E0B6
100
AcDbXrecord
280
     1
102
RTVSPropertyOp0
 70
     1
102
RTVSPropertyOp1
 70
     1
102
RTVSPropertyOp2
 70
     1
102
RTVSPropertyOp3
 70
     1
102
RTVSPropertyOp4
 70
     1
102
RTVSPropertyOp5
 70
     1
102
RTVSPropertyOp6
 70
     1
102
RTVSPropertyOp7
 70
     1
102
RTVSPropertyOp8
 70
     1
102
RTVSPropertyOp9
 70
     1
102
RTVSPropertyOp10
 70
     1
102
RTVSPropertyOp11
 70
     1
102
RTVSPropertyOp12
 70
     1
102
RTVSPropertyOp13
 70
     1
102
RTVSPropertyOp14
 70
     1
102
RTVSPropertyOp15
 70
     1
102
RTVSPropertyOp16
 70
     1
102
RTVSPropertyOp17
 70
     1
102
RTVSPropertyOp18
 70
     1
102
RTVSPropertyOp19
 70
     1
102
RTVSPropertyOp20
 70
     1
102
RTVSPropertyOp21
 70
     1
102
RTVSPropertyOp22
 70
     1
102
RTVSPropertyOp23
 70
     1
102
RTVSPropertyOp24
 70
     1
102
RTVSPropertyOp25
 70
     1
102
RTVSPropertyOp26
 70
     1
102
RTVSPropertyOp27
 70
     1
102
RTVSPropertyOp28
 70
     1
102
RTVSPropertyOp29
 70
     1
102
RTVSPropertyOp30
 70
     1
102
RTVSPropertyOp31
 70
     1
102
RTVSPropertyOp32
 70
     1
  0
XRECORD
  5
E0C5
102
{ACAD_REACTORS
330
E0C4
102
}
330
E0C4
100
AcDbXrecord
280
     1
102
RTVSPropertyOp0
 70
     1
102
RTVSPropertyOp1
 70
     1
102
RTVSPropertyOp2
 70
     1
102
RTVSPropertyOp3
 70
     1
102
RTVSPropertyOp4
 70
     1
102
RTVSPropertyOp5
 70
     1
102
RTVSPropertyOp6
 70
     1
102
RTVSPropertyOp7
 70
     1
102
RTVSPropertyOp8
 70
     1
102
RTVSPropertyOp9
 70
     1
102
RTVSPropertyOp10
 70
     1
102
RTVSPropertyOp11
 70
     1
102
RTVSPropertyOp12
 70
     1
102
RTVSPropertyOp13
 70
     1
102
RTVSPropertyOp14
 70
     1
102
RTVSPropertyOp15
 70
     1
102
RTVSPropertyOp16
 70
     1
102
RTVSPropertyOp17
 70
     1
102
RTVSPropertyOp18
 70
     1
102
RTVSPropertyOp19
 70
     1
102
RTVSPropertyOp20
 70
     1
102
RTVSPropertyOp21
 70
     1
102
RTVSPropertyOp22
 70
     1
102
RTVSPropertyOp23
 70
     1
102
RTVSPropertyOp24
 70
     1
102
RTVSPropertyOp25
 70
     1
102
RTVSPropertyOp26
 70
     1
102
RTVSPropertyOp27
 70
     1
102
RTVSPropertyOp28
 70
     1
102
RTVSPropertyOp29
 70
     1
102
RTVSPropertyOp30
 70
     1
102
RTVSPropertyOp31
 70
     1
102
RTVSPropertyOp32
 70
     1
  0
XRECORD
  5
E0CD
102
{ACAD_REACTORS
330
E0CC
102
}
330
E0CC
100
AcDbXrecord
280
     1
102
RTVSPropertyOp0
 70
     1
102
RTVSPropertyOp1
 70
     1
102
RTVSPropertyOp2
 70
     1
102
RTVSPropertyOp3
 70
     1
102
RTVSPropertyOp4
 70
     1
102
RTVSPropertyOp5
 70
     1
102
RTVSPropertyOp6
 70
     1
102
RTVSPropertyOp7
 70
     1
102
RTVSPropertyOp8
 70
     1
102
RTVSPropertyOp9
 70
     1
102
RTVSPropertyOp10
 70
     1
102
RTVSPropertyOp11
 70
     1
102
RTVSPropertyOp12
 70
     1
102
RTVSPropertyOp13
 70
     1
102
RTVSPropertyOp14
 70
     1
102
RTVSPropertyOp15
 70
     1
102
RTVSPropertyOp16
 70
     1
102
RTVSPropertyOp17
 70
     1
102
RTVSPropertyOp18
 70
     1
102
RTVSPropertyOp19
 70
     1
102
RTVSPropertyOp20
 70
     1
102
RTVSPropertyOp21
 70
     1
102
RTVSPropertyOp22
 70
     1
102
RTVSPropertyOp23
 70
     1
102
RTVSPropertyOp24
 70
     1
102
RTVSPropertyOp25
 70
     1
102
RTVSPropertyOp26
 70
     1
102
RTVSPropertyOp27
 70
     1
102
RTVSPropertyOp28
 70
     1
102
RTVSPropertyOp29
 70
     1
102
RTVSPropertyOp30
 70
     1
102
RTVSPropertyOp31
 70
     1
102
RTVSPropertyOp32
 70
     1
  0
XRECORD
  5
E0BF
102
{ACAD_REACTORS
330
E0BE
102
}
330
E0BE
100
AcDbXrecord
280
     1
102
RTVSPropertyOp0
 70
     1
102
RTVSPropertyOp1
 70
     1
102
RTVSPropertyOp2
 70
     1
102
RTVSPropertyOp3
 70
     1
102
RTVSPropertyOp4
 70
     1
102
RTVSPropertyOp5
 70
     1
102
RTVSPropertyOp6
 70
     1
102
RTVSPropertyOp7
 70
     1
102
RTVSPropertyOp8
 70
     1
102
RTVSPropertyOp9
 70
     1
102
RTVSPropertyOp10
 70
     1
102
RTVSPropertyOp11
 70
     1
102
RTVSPropertyOp12
 70
     1
102
RTVSPropertyOp13
 70
     1
102
RTVSPropertyOp14
 70
     1
102
RTVSPropertyOp15
 70
     1
102
RTVSPropertyOp16
 70
     1
102
RTVSPropertyOp17
 70
     1
102
RTVSPropertyOp18
 70
     1
102
RTVSPropertyOp19
 70
     1
102
RTVSPropertyOp20
 70
     1
102
RTVSPropertyOp21
 70
     1
102
RTVSPropertyOp22
 70
     1
102
RTVSPropertyOp23
 70
     1
102
RTVSPropertyOp24
 70
     1
102
RTVSPropertyOp25
 70
     1
102
RTVSPropertyOp26
 70
     1
102
RTVSPropertyOp27
 70
     1
102
RTVSPropertyOp28
 70
     1
102
RTVSPropertyOp29
 70
     1
102
RTVSPropertyOp30
 70
     1
102
RTVSPropertyOp31
 70
     1
102
RTVSPropertyOp32
 70
     1
  0
XRECORD
  5
E0C3
102
{ACAD_REACTORS
330
E0C2
102
}
330
E0C2
100
AcDbXrecord
280
     1
102
RTVSPropertyOp0
 70
     1
102
RTVSPropertyOp1
 70
     1
102
RTVSPropertyOp2
 70
     1
102
RTVSPropertyOp3
 70
     1
102
RTVSPropertyOp4
 70
     1
102
RTVSPropertyOp5
 70
     1
102
RTVSPropertyOp6
 70
     1
102
RTVSPropertyOp7
 70
     1
102
RTVSPropertyOp8
 70
     1
102
RTVSPropertyOp9
 70
     1
102
RTVSPropertyOp10
 70
     1
102
RTVSPropertyOp11
 70
     1
102
RTVSPropertyOp12
 70
     1
102
RTVSPropertyOp13
 70
     1
102
RTVSPropertyOp14
 70
     1
102
RTVSPropertyOp15
 70
     1
102
RTVSPropertyOp16
 70
     1
102
RTVSPropertyOp17
 70
     1
102
RTVSPropertyOp18
 70
     1
102
RTVSPropertyOp19
 70
     1
102
RTVSPropertyOp20
 70
     1
102
RTVSPropertyOp21
 70
     1
102
RTVSPropertyOp22
 70
     1
102
RTVSPropertyOp23
 70
     1
102
RTVSPropertyOp24
 70
     1
102
RTVSPropertyOp25
 70
     1
102
RTVSPropertyOp26
 70
     1
102
RTVSPropertyOp27
 70
     1
102
RTVSPropertyOp28
 70
     1
102
RTVSPropertyOp29
 70
     1
102
RTVSPropertyOp30
 70
     1
102
RTVSPropertyOp31
 70
     1
102
RTVSPropertyOp32
 70
     1
  0
XRECORD
  5
E0DD
102
{ACAD_REACTORS
330
E0DC
102
}
330
E0DC
100
AcDbXrecord
280
     1
102
RTVSPropertyOp0
 70
     0
102
RTVSPropertyOp1
 70
     0
102
RTVSPropertyOp2
 70
     0
102
RTVSPropertyOp3
 70
     0
102
RTVSPropertyOp4
 70
     0
102
RTVSPropertyOp5
 70
     0
102
RTVSPropertyOp6
 70
     0
102
RTVSPropertyOp7
 70
     0
102
RTVSPropertyOp8
 70
     0
102
RTVSPropertyOp9
 70
     0
102
RTVSPropertyOp10
 70
     0
102
RTVSPropertyOp11
 70
     0
102
RTVSPropertyOp12
 70
     0
102
RTVSPropertyOp13
 70
     0
102
RTVSPropertyOp14
 70
     2
102
RTVSPropertyOp15
 70
     0
102
RTVSPropertyOp16
 70
     0
102
RTVSPropertyOp17
 70
     0
102
RTVSPropertyOp18
 70
     0
102
RTVSPropertyOp19
 70
     0
102
RTVSPropertyOp20
 70
     0
102
RTVSPropertyOp21
 70
     0
102
RTVSPropertyOp22
 70
     0
102
RTVSPropertyOp23
 70
     0
102
RTVSPropertyOp24
 70
     0
102
RTVSPropertyOp25
 70
     0
102
RTVSPropertyOp26
 70
     0
102
RTVSPropertyOp27
 70
     0
102
RTVSPropertyOp28
 70
     0
102
RTVSPropertyOp29
 70
     0
102
RTVSPropertyOp30
 70
     0
102
RTVSPropertyOp31
 70
     0
102
RTVSPropertyOp32
 70
     0
  0
XRECORD
  5
E0CB
102
{ACAD_REACTORS
330
E0CA
102
}
330
E0CA
100
AcDbXrecord
280
     1
102
RTVSPropertyOp0
 70
     1
102
RTVSPropertyOp1
 70
     1
102
RTVSPropertyOp2
 70
     1
102
RTVSPropertyOp3
 70
     1
102
RTVSPropertyOp4
 70
     1
102
RTVSPropertyOp5
 70
     1
102
RTVSPropertyOp6
 70
     1
102
RTVSPropertyOp7
 70
     1
102
RTVSPropertyOp8
 70
     1
102
RTVSPropertyOp9
 70
     1
102
RTVSPropertyOp10
 70
     1
102
RTVSPropertyOp11
 70
     1
102
RTVSPropertyOp12
 70
     1
102
RTVSPropertyOp13
 70
     1
102
RTVSPropertyOp14
 70
     1
102
RTVSPropertyOp15
 70
     1
102
RTVSPropertyOp16
 70
     1
102
RTVSPropertyOp17
 70
     1
102
RTVSPropertyOp18
 70
     1
102
RTVSPropertyOp19
 70
     1
102
RTVSPropertyOp20
 70
     1
102
RTVSPropertyOp21
 70
     1
102
RTVSPropertyOp22
 70
     1
102
RTVSPropertyOp23
 70
     1
102
RTVSPropertyOp24
 70
     1
102
RTVSPropertyOp25
 70
     1
102
RTVSPropertyOp26
 70
     1
102
RTVSPropertyOp27
 70
     1
102
RTVSPropertyOp28
 70
     1
102
RTVSPropertyOp29
 70
     1
102
RTVSPropertyOp30
 70
     1
102
RTVSPropertyOp31
 70
     1
102
RTVSPropertyOp32
 70
     1
  0
XRECORD
  5
E0AF
102
{ACAD_REACTORS
330
E0AE
102
}
330
E0AE
100
AcDbXrecord
280
     1
102
RTVSPropertyOp0
 70
     1
102
RTVSPropertyOp1
 70
     1
102
RTVSPropertyOp2
 70
     1
102
RTVSPropertyOp3
 70
     1
102
RTVSPropertyOp4
 70
     1
102
RTVSPropertyOp5
 70
     1
102
RTVSPropertyOp6
 70
     1
102
RTVSPropertyOp7
 70
     1
102
RTVSPropertyOp8
 70
     1
102
RTVSPropertyOp9
 70
     1
102
RTVSPropertyOp10
 70
     1
102
RTVSPropertyOp11
 70
     1
102
RTVSPropertyOp12
 70
     1
102
RTVSPropertyOp13
 70
     1
102
RTVSPropertyOp14
 70
     1
102
RTVSPropertyOp15
 70
     1
102
RTVSPropertyOp16
 70
     1
102
RTVSPropertyOp17
 70
     1
102
RTVSPropertyOp18
 70
     1
102
RTVSPropertyOp19
 70
     1
102
RTVSPropertyOp20
 70
     1
102
RTVSPropertyOp21
 70
     1
102
RTVSPropertyOp22
 70
     1
102
RTVSPropertyOp23
 70
     1
102
RTVSPropertyOp24
 70
     1
102
RTVSPropertyOp25
 70
     1
102
RTVSPropertyOp26
 70
     1
102
RTVSPropertyOp27
 70
     1
102
RTVSPropertyOp28
 70
     1
102
RTVSPropertyOp29
 70
     1
102
RTVSPropertyOp30
 70
     1
102
RTVSPropertyOp31
 70
     1
102
RTVSPropertyOp32
 70
     1
  0
XRECORD
  5
E0B1
102
{ACAD_REACTORS
330
E0B0
102
}
330
E0B0
100
AcDbXrecord
280
     1
102
RTVSPropertyOp0
 70
     1
102
RTVSPropertyOp1
 70
     1
102
RTVSPropertyOp2
 70
     1
102
RTVSPropertyOp3
 70
     1
102
RTVSPropertyOp4
 70
     1
102
RTVSPropertyOp5
 70
     1
102
RTVSPropertyOp6
 70
     1
102
RTVSPropertyOp7
 70
     1
102
RTVSPropertyOp8
 70
     1
102
RTVSPropertyOp9
 70
     1
102
RTVSPropertyOp10
 70
     1
102
RTVSPropertyOp11
 70
     1
102
RTVSPropertyOp12
 70
     1
102
RTVSPropertyOp13
 70
     1
102
RTVSPropertyOp14
 70
     1
102
RTVSPropertyOp15
 70
     1
102
RTVSPropertyOp16
 70
     1
102
RTVSPropertyOp17
 70
     1
102
RTVSPropertyOp18
 70
     1
102
RTVSPropertyOp19
 70
     1
102
RTVSPropertyOp20
 70
     1
102
RTVSPropertyOp21
 70
     1
102
RTVSPropertyOp22
 70
     1
102
RTVSPropertyOp23
 70
     1
102
RTVSPropertyOp24
 70
     1
102
RTVSPropertyOp25
 70
     1
102
RTVSPropertyOp26
 70
     1
102
RTVSPropertyOp27
 70
     1
102
RTVSPropertyOp28
 70
     1
102
RTVSPropertyOp29
 70
     1
102
RTVSPropertyOp30
 70
     1
102
RTVSPropertyOp31
 70
     1
102
RTVSPropertyOp32
 70
     1
  0
XRECORD
  5
E0B3
102
{ACAD_REACTORS
330
E0B2
102
}
330
E0B2
100
AcDbXrecord
280
     1
102
RTVSPropertyOp0
 70
     1
102
RTVSPropertyOp1
 70
     1
102
RTVSPropertyOp2
 70
     1
102
RTVSPropertyOp3
 70
     1
102
RTVSPropertyOp4
 70
     1
102
RTVSPropertyOp5
 70
     1
102
RTVSPropertyOp6
 70
     1
102
RTVSPropertyOp7
 70
     1
102
RTVSPropertyOp8
 70
     1
102
RTVSPropertyOp9
 70
     1
102
RTVSPropertyOp10
 70
     1
102
RTVSPropertyOp11
 70
     1
102
RTVSPropertyOp12
 70
     1
102
RTVSPropertyOp13
 70
     1
102
RTVSPropertyOp14
 70
     1
102
RTVSPropertyOp15
 70
     1
102
RTVSPropertyOp16
 70
     1
102
RTVSPropertyOp17
 70
     1
102
RTVSPropertyOp18
 70
     1
102
RTVSPropertyOp19
 70
     1
102
RTVSPropertyOp20
 70
     1
102
RTVSPropertyOp21
 70
     1
102
RTVSPropertyOp22
 70
     1
102
RTVSPropertyOp23
 70
     1
102
RTVSPropertyOp24
 70
     1
102
RTVSPropertyOp25
 70
     1
102
RTVSPropertyOp26
 70
     1
102
RTVSPropertyOp27
 70
     1
102
RTVSPropertyOp28
 70
     1
102
RTVSPropertyOp29
 70
     1
102
RTVSPropertyOp30
 70
     1
102
RTVSPropertyOp31
 70
     1
102
RTVSPropertyOp32
 70
     1
  0
XRECORD
  5
E0B5
102
{ACAD_REACTORS
330
E0B4
102
}
330
E0B4
100
AcDbXrecord
280
     1
102
RTVSPropertyOp0
 70
     1
102
RTVSPropertyOp1
 70
     1
102
RTVSPropertyOp2
 70
     1
102
RTVSPropertyOp3
 70
     1
102
RTVSPropertyOp4
 70
     1
102
RTVSPropertyOp5
 70
     1
102
RTVSPropertyOp6
 70
     1
102
RTVSPropertyOp7
 70
     1
102
RTVSPropertyOp8
 70
     1
102
RTVSPropertyOp9
 70
     1
102
RTVSPropertyOp10
 70
     1
102
RTVSPropertyOp11
 70
     1
102
RTVSPropertyOp12
 70
     1
102
RTVSPropertyOp13
 70
     1
102
RTVSPropertyOp14
 70
     1
102
RTVSPropertyOp15
 70
     1
102
RTVSPropertyOp16
 70
     1
102
RTVSPropertyOp17
 70
     1
102
RTVSPropertyOp18
 70
     1
102
RTVSPropertyOp19
 70
     1
102
RTVSPropertyOp20
 70
     1
102
RTVSPropertyOp21
 70
     1
102
RTVSPropertyOp22
 70
     1
102
RTVSPropertyOp23
 70
     1
102
RTVSPropertyOp24
 70
     1
102
RTVSPropertyOp25
 70
     1
102
RTVSPropertyOp26
 70
     1
102
RTVSPropertyOp27
 70
     1
102
RTVSPropertyOp28
 70
     1
102
RTVSPropertyOp29
 70
     1
102
RTVSPropertyOp30
 70
     1
102
RTVSPropertyOp31
 70
     1
102
RTVSPropertyOp32
 70
     1
  0
XRECORD
  5
E0BD
102
{ACAD_REACTORS
330
E0BC
102
}
330
E0BC
100
AcDbXrecord
280
     1
102
RTVSPropertyOp0
 70
     1
102
RTVSPropertyOp1
 70
     1
102
RTVSPropertyOp2
 70
     1
102
RTVSPropertyOp3
 70
     1
102
RTVSPropertyOp4
 70
     1
102
RTVSPropertyOp5
 70
     1
102
RTVSPropertyOp6
 70
     1
102
RTVSPropertyOp7
 70
     1
102
RTVSPropertyOp8
 70
     1
102
RTVSPropertyOp9
 70
     1
102
RTVSPropertyOp10
 70
     1
102
RTVSPropertyOp11
 70
     1
102
RTVSPropertyOp12
 70
     1
102
RTVSPropertyOp13
 70
     1
102
RTVSPropertyOp14
 70
     1
102
RTVSPropertyOp15
 70
     1
102
RTVSPropertyOp16
 70
     1
102
RTVSPropertyOp17
 70
     1
102
RTVSPropertyOp18
 70
     1
102
RTVSPropertyOp19
 70
     1
102
RTVSPropertyOp20
 70
     1
102
RTVSPropertyOp21
 70
     1
102
RTVSPropertyOp22
 70
     1
102
RTVSPropertyOp23
 70
     1
102
RTVSPropertyOp24
 70
     1
102
RTVSPropertyOp25
 70
     1
102
RTVSPropertyOp26
 70
     1
102
RTVSPropertyOp27
 70
     1
102
RTVSPropertyOp28
 70
     1
102
RTVSPropertyOp29
 70
     1
102
RTVSPropertyOp30
 70
     1
102
RTVSPropertyOp31
 70
     1
102
RTVSPropertyOp32
 70
     1
  0
XRECORD
  5
E0D9
102
{ACAD_REACTORS
330
E0D8
102
}
330
E0D8
100
AcDbXrecord
280
     1
102
RTVSPropertyOp0
 70
     0
102
RTVSPropertyOp1
 70
     0
102
RTVSPropertyOp2
 70
     0
102
RTVSPropertyOp3
 70
     0
102
RTVSPropertyOp4
 70
     0
102
RTVSPropertyOp5
 70
     0
102
RTVSPropertyOp6
 70
     0
102
RTVSPropertyOp7
 70
     0
102
RTVSPropertyOp8
 70
     0
102
RTVSPropertyOp9
 70
     0
102
RTVSPropertyOp10
 70
     0
102
RTVSPropertyOp11
 70
     0
102
RTVSPropertyOp12
 70
     0
102
RTVSPropertyOp13
 70
     0
102
RTVSPropertyOp14
 70
     2
102
RTVSPropertyOp15
 70
     0
102
RTVSPropertyOp16
 70
     0
102
RTVSPropertyOp17
 70
     0
102
RTVSPropertyOp18
 70
     0
102
RTVSPropertyOp19
 70
     0
102
RTVSPropertyOp20
 70
     0
102
RTVSPropertyOp21
 70
     0
102
RTVSPropertyOp22
 70
     0
102
RTVSPropertyOp23
 70
     0
102
RTVSPropertyOp24
 70
     0
102
RTVSPropertyOp25
 70
     0
102
RTVSPropertyOp26
 70
     0
102
RTVSPropertyOp27
 70
     0
102
RTVSPropertyOp28
 70
     0
102
RTVSPropertyOp29
 70
     0
102
RTVSPropertyOp30
 70
     0
102
RTVSPropertyOp31
 70
     0
102
RTVSPropertyOp32
 70
     0
  0
XRECORD
  5
E0C9
102
{ACAD_REACTORS
330
E0C8
102
}
330
E0C8
100
AcDbXrecord
280
     1
102
RTVSPropertyOp0
 70
     1
102
RTVSPropertyOp1
 70
     1
102
RTVSPropertyOp2
 70
     1
102
RTVSPropertyOp3
 70
     1
102
RTVSPropertyOp4
 70
     1
102
RTVSPropertyOp5
 70
     1
102
RTVSPropertyOp6
 70
     1
102
RTVSPropertyOp7
 70
     1
102
RTVSPropertyOp8
 70
     1
102
RTVSPropertyOp9
 70
     1
102
RTVSPropertyOp10
 70
     1
102
RTVSPropertyOp11
 70
     1
102
RTVSPropertyOp12
 70
     1
102
RTVSPropertyOp13
 70
     1
102
RTVSPropertyOp14
 70
     1
102
RTVSPropertyOp15
 70
     1
102
RTVSPropertyOp16
 70
     1
102
RTVSPropertyOp17
 70
     1
102
RTVSPropertyOp18
 70
     1
102
RTVSPropertyOp19
 70
     1
102
RTVSPropertyOp20
 70
     1
102
RTVSPropertyOp21
 70
     1
102
RTVSPropertyOp22
 70
     1
102
RTVSPropertyOp23
 70
     1
102
RTVSPropertyOp24
 70
     1
102
RTVSPropertyOp25
 70
     1
102
RTVSPropertyOp26
 70
     1
102
RTVSPropertyOp27
 70
     1
102
RTVSPropertyOp28
 70
     1
102
RTVSPropertyOp29
 70
     1
102
RTVSPropertyOp30
 70
     1
102
RTVSPropertyOp31
 70
     1
102
RTVSPropertyOp32
 70
     1
  0
XRECORD
  5
E0DB
102
{ACAD_REACTORS
330
E0DA
102
}
330
E0DA
100
AcDbXrecord
280
     1
102
RTVSPropertyOp0
 70
     0
102
RTVSPropertyOp1
 70
     0
102
RTVSPropertyOp2
 70
     0
102
RTVSPropertyOp3
 70
     0
102
RTVSPropertyOp4
 70
     0
102
RTVSPropertyOp5
 70
     0
102
RTVSPropertyOp6
 70
     0
102
RTVSPropertyOp7
 70
     0
102
RTVSPropertyOp8
 70
     0
102
RTVSPropertyOp9
 70
     0
102
RTVSPropertyOp10
 70
     0
102
RTVSPropertyOp11
 70
     0
102
RTVSPropertyOp12
 70
     0
102
RTVSPropertyOp13
 70
     0
102
RTVSPropertyOp14
 70
     2
102
RTVSPropertyOp15
 70
     0
102
RTVSPropertyOp16
 70
     0
102
RTVSPropertyOp17
 70
     0
102
RTVSPropertyOp18
 70
     0
102
RTVSPropertyOp19
 70
     0
102
RTVSPropertyOp20
 70
     0
102
RTVSPropertyOp21
 70
     0
102
RTVSPropertyOp22
 70
     0
102
RTVSPropertyOp23
 70
     0
102
RTVSPropertyOp24
 70
     0
102
RTVSPropertyOp25
 70
     0
102
RTVSPropertyOp26
 70
     0
102
RTVSPropertyOp27
 70
     0
102
RTVSPropertyOp28
 70
     0
102
RTVSPropertyOp29
 70
     0
102
RTVSPropertyOp30
 70
     0
102
RTVSPropertyOp31
 70
     0
102
RTVSPropertyOp32
 70
     0
  0
XRECORD
  5
E0C1
102
{ACAD_REACTORS
330
E0C0
102
}
330
E0C0
100
AcDbXrecord
280
     1
102
RTVSPropertyOp0
 70
     1
102
RTVSPropertyOp1
 70
     1
102
RTVSPropertyOp2
 70
     1
102
RTVSPropertyOp3
 70
     1
102
RTVSPropertyOp4
 70
     1
102
RTVSPropertyOp5
 70
     1
102
RTVSPropertyOp6
 70
     1
102
RTVSPropertyOp7
 70
     1
102
RTVSPropertyOp8
 70
     1
102
RTVSPropertyOp9
 70
     1
102
RTVSPropertyOp10
 70
     1
102
RTVSPropertyOp11
 70
     1
102
RTVSPropertyOp12
 70
     1
102
RTVSPropertyOp13
 70
     1
102
RTVSPropertyOp14
 70
     1
102
RTVSPropertyOp15
 70
     1
102
RTVSPropertyOp16
 70
     1
102
RTVSPropertyOp17
 70
     1
102
RTVSPropertyOp18
 70
     1
102
RTVSPropertyOp19
 70
     1
102
RTVSPropertyOp20
 70
     1
102
RTVSPropertyOp21
 70
     1
102
RTVSPropertyOp22
 70
     1
102
RTVSPropertyOp23
 70
     1
102
RTVSPropertyOp24
 70
     1
102
RTVSPropertyOp25
 70
     1
102
RTVSPropertyOp26
 70
     1
102
RTVSPropertyOp27
 70
     1
102
RTVSPropertyOp28
 70
     1
102
RTVSPropertyOp29
 70
     1
102
RTVSPropertyOp30
 70
     1
102
RTVSPropertyOp31
 70
     1
102
RTVSPropertyOp32
 70
     1
  0
XRECORD
  5
E0D7
102
{ACAD_REACTORS
330
E0D6
102
}
330
E0D6
100
AcDbXrecord
280
     1
102
RTVSPropertyOp0
 70
     1
102
RTVSPropertyOp1
 70
     1
102
RTVSPropertyOp2
 70
     1
102
RTVSPropertyOp3
 70
     1
102
RTVSPropertyOp4
 70
     1
102
RTVSPropertyOp5
 70
     1
102
RTVSPropertyOp6
 70
     1
102
RTVSPropertyOp7
 70
     1
102
RTVSPropertyOp8
 70
     1
102
RTVSPropertyOp9
 70
     1
102
RTVSPropertyOp10
 70
     1
102
RTVSPropertyOp11
 70
     1
102
RTVSPropertyOp12
 70
     1
102
RTVSPropertyOp13
 70
     1
102
RTVSPropertyOp14
 70
     1
102
RTVSPropertyOp15
 70
     1
102
RTVSPropertyOp16
 70
     1
102
RTVSPropertyOp17
 70
     1
102
RTVSPropertyOp18
 70
     1
102
RTVSPropertyOp19
 70
     1
102
RTVSPropertyOp20
 70
     1
102
RTVSPropertyOp21
 70
     1
102
RTVSPropertyOp22
 70
     1
102
RTVSPropertyOp23
 70
     1
102
RTVSPropertyOp24
 70
     1
102
RTVSPropertyOp25
 70
     1
102
RTVSPropertyOp26
 70
     1
102
RTVSPropertyOp27
 70
     1
102
RTVSPropertyOp28
 70
     1
102
RTVSPropertyOp29
 70
     1
102
RTVSPropertyOp30
 70
     1
102
RTVSPropertyOp31
 70
     1
102
RTVSPropertyOp32
 70
     1
  0
XRECORD
  5
E0D5
102
{ACAD_REACTORS
330
E0D4
102
}
330
E0D4
100
AcDbXrecord
280
     1
102
RTVSPropertyOp0
 70
     1
102
RTVSPropertyOp1
 70
     1
102
RTVSPropertyOp2
 70
     1
102
RTVSPropertyOp3
 70
     1
102
RTVSPropertyOp4
 70
     1
102
RTVSPropertyOp5
 70
     1
102
RTVSPropertyOp6
 70
     1
102
RTVSPropertyOp7
 70
     1
102
RTVSPropertyOp8
 70
     1
102
RTVSPropertyOp9
 70
     1
102
RTVSPropertyOp10
 70
     1
102
RTVSPropertyOp11
 70
     1
102
RTVSPropertyOp12
 70
     1
102
RTVSPropertyOp13
 70
     1
102
RTVSPropertyOp14
 70
     1
102
RTVSPropertyOp15
 70
     1
102
RTVSPropertyOp16
 70
     1
102
RTVSPropertyOp17
 70
     1
102
RTVSPropertyOp18
 70
     1
102
RTVSPropertyOp19
 70
     1
102
RTVSPropertyOp20
 70
     1
102
RTVSPropertyOp21
 70
     1
102
RTVSPropertyOp22
 70
     1
102
RTVSPropertyOp23
 70
     1
102
RTVSPropertyOp24
 70
     1
102
RTVSPropertyOp25
 70
     1
102
RTVSPropertyOp26
 70
     1
102
RTVSPropertyOp27
 70
     1
102
RTVSPropertyOp28
 70
     1
102
RTVSPropertyOp29
 70
     1
102
RTVSPropertyOp30
 70
     1
102
RTVSPropertyOp31
 70
     1
102
RTVSPropertyOp32
 70
     1
  0
XRECORD
  5
E0CF
102
{ACAD_REACTORS
330
E0CE
102
}
330
E0CE
100
AcDbXrecord
280
     1
102
RTVSPropertyOp0
 70
     1
102
RTVSPropertyOp1
 70
     1
102
RTVSPropertyOp2
 70
     1
102
RTVSPropertyOp3
 70
     1
102
RTVSPropertyOp4
 70
     1
102
RTVSPropertyOp5
 70
     1
102
RTVSPropertyOp6
 70
     1
102
RTVSPropertyOp7
 70
     1
102
RTVSPropertyOp8
 70
     1
102
RTVSPropertyOp9
 70
     1
102
RTVSPropertyOp10
 70
     1
102
RTVSPropertyOp11
 70
     1
102
RTVSPropertyOp12
 70
     1
102
RTVSPropertyOp13
 70
     1
102
RTVSPropertyOp14
 70
     1
102
RTVSPropertyOp15
 70
     1
102
RTVSPropertyOp16
 70
     1
102
RTVSPropertyOp17
 70
     1
102
RTVSPropertyOp18
 70
     1
102
RTVSPropertyOp19
 70
     1
102
RTVSPropertyOp20
 70
     1
102
RTVSPropertyOp21
 70
     1
102
RTVSPropertyOp22
 70
     1
102
RTVSPropertyOp23
 70
     1
102
RTVSPropertyOp24
 70
     1
102
RTVSPropertyOp25
 70
     1
102
RTVSPropertyOp26
 70
     1
102
RTVSPropertyOp27
 70
     1
102
RTVSPropertyOp28
 70
     1
102
RTVSPropertyOp29
 70
     1
102
RTVSPropertyOp30
 70
     1
102
RTVSPropertyOp31
 70
     1
102
RTVSPropertyOp32
 70
     1
  0
XRECORD
  5
E0D1
102
{ACAD_REACTORS
330
E0D0
102
}
330
E0D0
100
AcDbXrecord
280
     1
102
RTVSPropertyOp0
 70
     1
102
RTVSPropertyOp1
 70
     1
102
RTVSPropertyOp2
 70
     1
102
RTVSPropertyOp3
 70
     1
102
RTVSPropertyOp4
 70
     1
102
RTVSPropertyOp5
 70
     1
102
RTVSPropertyOp6
 70
     1
102
RTVSPropertyOp7
 70
     1
102
RTVSPropertyOp8
 70
     1
102
RTVSPropertyOp9
 70
     1
102
RTVSPropertyOp10
 70
     1
102
RTVSPropertyOp11
 70
     1
102
RTVSPropertyOp12
 70
     1
102
RTVSPropertyOp13
 70
     1
102
RTVSPropertyOp14
 70
     1
102
RTVSPropertyOp15
 70
     1
102
RTVSPropertyOp16
 70
     1
102
RTVSPropertyOp17
 70
     1
102
RTVSPropertyOp18
 70
     1
102
RTVSPropertyOp19
 70
     1
102
RTVSPropertyOp20
 70
     1
102
RTVSPropertyOp21
 70
     1
102
RTVSPropertyOp22
 70
     1
102
RTVSPropertyOp23
 70
     1
102
RTVSPropertyOp24
 70
     1
102
RTVSPropertyOp25
 70
     1
102
RTVSPropertyOp26
 70
     1
102
RTVSPropertyOp27
 70
     1
102
RTVSPropertyOp28
 70
     1
102
RTVSPropertyOp29
 70
     1
102
RTVSPropertyOp30
 70
     1
102
RTVSPropertyOp31
 70
     1
102
RTVSPropertyOp32
 70
     1
  0
XRECORD
  5
E0C7
102
{ACAD_REACTORS
330
E0C6
102
}
330
E0C6
100
AcDbXrecord
280
     1
102
RTVSPropertyOp0
 70
     1
102
RTVSPropertyOp1
 70
     1
102
RTVSPropertyOp2
 70
     1
102
RTVSPropertyOp3
 70
     1
102
RTVSPropertyOp4
 70
     1
102
RTVSPropertyOp5
 70
     1
102
RTVSPropertyOp6
 70
     1
102
RTVSPropertyOp7
 70
     1
102
RTVSPropertyOp8
 70
     1
102
RTVSPropertyOp9
 70
     1
102
RTVSPropertyOp10
 70
     1
102
RTVSPropertyOp11
 70
     1
102
RTVSPropertyOp12
 70
     1
102
RTVSPropertyOp13
 70
     1
102
RTVSPropertyOp14
 70
     1
102
RTVSPropertyOp15
 70
     1
102
RTVSPropertyOp16
 70
     1
102
RTVSPropertyOp17
 70
     1
102
RTVSPropertyOp18
 70
     1
102
RTVSPropertyOp19
 70
     1
102
RTVSPropertyOp20
 70
     1
102
RTVSPropertyOp21
 70
     1
102
RTVSPropertyOp22
 70
     1
102
RTVSPropertyOp23
 70
     1
102
RTVSPropertyOp24
 70
     1
102
RTVSPropertyOp25
 70
     1
102
RTVSPropertyOp26
 70
     1
102
RTVSPropertyOp27
 70
     1
102
RTVSPropertyOp28
 70
     1
102
RTVSPropertyOp29
 70
     1
102
RTVSPropertyOp30
 70
     1
102
RTVSPropertyOp31
 70
     1
102
RTVSPropertyOp32
 70
     1
  0
XRECORD
  5
E0BB
102
{ACAD_REACTORS
330
E0BA
102
}
330
E0BA
100
AcDbXrecord
280
     1
102
RTVSPropertyOp0
 70
     1
102
RTVSPropertyOp1
 70
     1
102
RTVSPropertyOp2
 70
     1
102
RTVSPropertyOp3
 70
     1
102
RTVSPropertyOp4
 70
     1
102
RTVSPropertyOp5
 70
     1
102
RTVSPropertyOp6
 70
     1
102
RTVSPropertyOp7
 70
     1
102
RTVSPropertyOp8
 70
     1
102
RTVSPropertyOp9
 70
     1
102
RTVSPropertyOp10
 70
     1
102
RTVSPropertyOp11
 70
     1
102
RTVSPropertyOp12
 70
     1
102
RTVSPropertyOp13
 70
     1
102
RTVSPropertyOp14
 70
     1
102
RTVSPropertyOp15
 70
     1
102
RTVSPropertyOp16
 70
     1
102
RTVSPropertyOp17
 70
     1
102
RTVSPropertyOp18
 70
     1
102
RTVSPropertyOp19
 70
     1
102
RTVSPropertyOp20
 70
     1
102
RTVSPropertyOp21
 70
     1
102
RTVSPropertyOp22
 70
     1
102
RTVSPropertyOp23
 70
     1
102
RTVSPropertyOp24
 70
     1
102
RTVSPropertyOp25
 70
     1
102
RTVSPropertyOp26
 70
     1
102
RTVSPropertyOp27
 70
     1
102
RTVSPropertyOp28
 70
     1
102
RTVSPropertyOp29
 70
     1
102
RTVSPropertyOp30
 70
     1
102
RTVSPropertyOp31
 70
     1
102
RTVSPropertyOp32
 70
     1
  0
XRECORD
  5
E0D3
102
{ACAD_REACTORS
330
E0D2
102
}
330
E0D2
100
AcDbXrecord
280
     1
102
RTVSPropertyOp0
 70
     1
102
RTVSPropertyOp1
 70
     1
102
RTVSPropertyOp2
 70
     1
102
RTVSPropertyOp3
 70
     1
102
RTVSPropertyOp4
 70
     1
102
RTVSPropertyOp5
 70
     1
102
RTVSPropertyOp6
 70
     1
102
RTVSPropertyOp7
 70
     1
102
RTVSPropertyOp8
 70
     1
102
RTVSPropertyOp9
 70
     1
102
RTVSPropertyOp10
 70
     1
102
RTVSPropertyOp11
 70
     1
102
RTVSPropertyOp12
 70
     1
102
RTVSPropertyOp13
 70
     1
102
RTVSPropertyOp14
 70
     1
102
RTVSPropertyOp15
 70
     1
102
RTVSPropertyOp16
 70
     1
102
RTVSPropertyOp17
 70
     1
102
RTVSPropertyOp18
 70
     1
102
RTVSPropertyOp19
 70
     1
102
RTVSPropertyOp20
 70
     1
102
RTVSPropertyOp21
 70
     1
102
RTVSPropertyOp22
 70
     1
102
RTVSPropertyOp23
 70
     1
102
RTVSPropertyOp24
 70
     1
102
RTVSPropertyOp25
 70
     1
102
RTVSPropertyOp26
 70
     1
102
RTVSPropertyOp27
 70
     1
102
RTVSPropertyOp28
 70
     1
102
RTVSPropertyOp29
 70
     1
102
RTVSPropertyOp30
 70
     1
102
RTVSPropertyOp31
 70
     1
102
RTVSPropertyOp32
 70
     1
  0
ENDSEC
  0
EOF
